>

7.4

iTunes

7.4

2 сезон

9.4

1 сезон

1

7.4

2 сезон

7.2

iTunes

6.0

MVO

13

6.1

iTunes

8.3

Пиратка

30

ULTIMATE

pack

9.9

Лицензия

ВАЖНО

ИГРА 18+

pack

7.3

RePack

MK11

7.7

RePack

jed

7.8

RePack

fifa19

8.5

RePack

RDR2

RePack

NEED FOR SPEED™ PAYBACK

1 сезон

9 сезон

Бесстыжие 9 сезон

Все сериалы

все сериалы на PB.wtf

RePack

FAR CRY 5

Anonymous, доброй ночи, мы катастрофически не успеваем собрать деньги на оплату серверов, помогите нам пожалуйста 5,10,15р., для нас важна любая помощь . В качестве благодарности мы отключим Вам всю рекламу на сайте (укажите свой ник в строку Ваше имя)!

×
  
Magnet ссылка

Аппассионата / Appassionata (Джанлуиджи Кальдероне) [1974, драма, BDRip 720p by msltel] AVO pb.wtf

Аппассионата через торрент pb.wtf

Размер: 4.29 GB | Добавлен: 2 года 9 мес. назад | Торрент скачан:11 раз
Смотреть онлайн Аппассионата | Скачать    Ребята, помогите собрать деньги на оплату серверов!!!

01-04-2019 05:11 Аппассионата Скачать торрент  

Название: Аппассионата
Оригинальное название: Appassionata
Год выпуска: 1974
Страна: Италия
Жанр: драма
Продолжительность: 01:38:33
Перевод: авторский

Режиссер: Джанлуиджи Кальдероне
В ролях: Орнелла Мути, Валентина Кортезе, Элеонора Джорджи, Нинетто Даволе, Габриэле Ферцетти, Рената Заменго, Карла Манчини, Луиджи Антонио Гуэрра

О фильме: Необычно складываются отношения в семье врача-стоматолога: дочь-старшеклассница ненавидит свою психически больную мать, в прошлом известную пианистку, и испытывает страсть к отцу. А тот, в свою очередь, любит её одноклассницу...



Качество: BDRip 720p
Формат: MKV
Видео: MPEG-4 AVC, 5839 Кбит/с, 1280х692, 23.976 кадр/с
Аудио 1: русский, AC3, 192 kbps, 2 ch, 48 kHz [авторский, Владимир Штейн]
Аудио 2: итальянский, AC3, 192 kbps, 2 ch, 48 kHz [оригинал]
Субтитры 1: русские
Субтитры 2: английские
Главы/чаптеры
Общее
Уникальный идентификатор : 179882906559257377962964570663750351462 (0x8754300808B18EC78E93EEA016023A66)
Полное имя : D:\Video\Аппассионата.1974.BDRip 720p by msltel.mkv
Формат : Matroska
Версия формата : Version 4
Размер файла : 4,29 Гбайт
Продолжительность : 1 ч. 38 м.
Общий поток : 6225 Кбит/сек
Название фильма : Rip by msltel
Дата кодирования : UTC 2019-04-01 05:57:55
Программа кодирования : mkvmerge v8.2.0 ('World of Adventure') 64bit
Библиотека кодирования : libebml v1.3.1 + libmatroska v1.4.2

Видео
Идентификатор : 1
Формат : AVC
Формат/Информация : Advanced Video Codec
Профиль формата : High@L4.1
Настройки формата : CABAC / 9 Ref Frames
Параметр CABAC формата : Да
Параметр RefFrames формата : 9 кадров
Идентификатор кодека : V_MPEG4/ISO/AVC
Продолжительность : 1 ч. 38 м.
Битрейт : 5839 Кбит/сек
Ширина : 1280 пикселей
Высота : 692 пикселя
Соотношение сторон : 1,85:1
Режим частоты кадров : Постоянный
Частота кадров : 23,976 (24000/1001) кадра/сек
Цветовое пространство : YUV
Субдискретизация насыщенности : 4:2:0
Битовая глубина : 8 бит
Тип развёртки : Прогрессивная
Бит/(Пиксели*Кадры) : 0.275
Размер потока : 4,02 Гбайт (94%)
Библиотека кодирования : x264 core 157 r2935 545de2f
Настройки программы : cabac=1 / ref=9 / deblock=1:-2:-2 / analyse=0x3:0x113 / me=umh / subme=11 / psy=1 / psy_rd=1.00:0.15 / mixed_ref=1 / me_range=32 / chroma_me=1 / trellis=2 / 8x8dct=1 / cqm=0 / deadzone=21,11 / fast_pskip=0 / chroma_qp_offset=-3 / threads=6 / lookahead_threads=1 / sliced_threads=0 / nr=0 / decimate=1 / interlaced=0 / bluray_compat=0 / constrained_intra=0 / bframes=7 / b_pyramid=2 / b_adapt=2 / b_bias=0 / direct=1 / weightb=1 / open_gop=0 / weightp=2 / keyint=230 / keyint_min=23 / scenecut=40 / intra_refresh=0 / rc_lookahead=40 / rc=crf / mbtree=1 / crf=16.5 / qcomp=0.60 / qpmin=0 / qpmax=69 / qpstep=4 / vbv_maxrate=50000 / vbv_bufsize=62500 / crf_max=0.0 / nal_hrd=none / filler=0 / ip_ratio=1.40 / aq=1:1.00
Язык : Italian
Default : Да
Forced : Нет

Аудио #1
Идентификатор : 2
Формат : AC-3
Формат/Информация : Audio Coding 3
Коммерческое название : Dolby Digital
Идентификатор кодека : A_AC3
Продолжительность : 1 ч. 38 м.
Вид битрейта : Постоянный
Битрейт : 192 Кбит/сек
Каналы : 2 канала
Channel layout : L R
Частота : 48,0 КГц
Частота кадров : 31,250 кадров/сек (1536 SPF)
Битовая глубина : 16 бит
Метод сжатия : С потерями
Размер потока : 135 Мбайт (3%)
Заголовок : Владимир Штейн
Язык : Russian
ServiceKind/String : Complete Main
Default : Да
Forced : Нет

Аудио #2
Идентификатор : 3
Формат : AC-3
Формат/Информация : Audio Coding 3
Коммерческое название : Dolby Digital
Идентификатор кодека : A_AC3
Продолжительность : 1 ч. 38 м.
Вид битрейта : Постоянный
Битрейт : 192 Кбит/сек
Каналы : 2 канала
Channel layout : L R
Частота : 48,0 КГц
Частота кадров : 31,250 кадров/сек (1536 SPF)
Битовая глубина : 16 бит
Метод сжатия : С потерями
Размер потока : 135 Мбайт (3%)
Заголовок : original
Язык : Italian
ServiceKind/String : Complete Main
Default : Нет
Forced : Нет

Текст #1
Идентификатор : 4
Формат : UTF-8
Идентификатор кодека : S_TEXT/UTF8
Идентификатор кодека/Информация : UTF-8 Plain Text
Продолжительность : 1 ч. 34 м.
Битрейт : 83 бит/сек
ElementCount : 963
Размер потока : 58,1 Кбайт (0%)
Заголовок : русские
Язык : Russian
Default : Нет
Forced : Нет

Текст #2
Идентификатор : 5
Формат : UTF-8
Идентификатор кодека : S_TEXT/UTF8
Идентификатор кодека/Информация : UTF-8 Plain Text
Продолжительность : 1 ч. 30 м.
Битрейт : 55 бит/сек
ElementCount : 899
Размер потока : 36,6 Кбайт (0%)
Заголовок : английские
Язык : English
Default : Нет
Forced : Нет

Меню
00:00:00.000 : en:Chapter 1
00:04:26.057 : en:Chapter 2
00:07:55.016 : en:Chapter 3
00:10:12.028 : en:Chapter 4
00:17:45.273 : en:Chapter 5
00:21:07.975 : en:Chapter 6
00:25:49.715 : en:Chapter 7
00:30:37.044 : en:Chapter 8
00:35:29.586 : en:Chapter 9
00:38:59.963 : en:Chapter 10
00:42:47.774 : en:Chapter 11
00:45:56.504 : en:Chapter 12
00:50:33.072 : en:Chapter 13
00:53:12.773 : en:Chapter 14
00:59:31.777 : en:Chapter 15
01:04:05.133 : en:Chapter 16
01:08:31.983 : en:Chapter 17
01:12:21.087 : en:Chapter 18
01:15:21.517 : en:Chapter 19
01:19:12.456 : en:Chapter 20
01:23:21.038 : en:Chapter 21
01:29:18.270 : en:Chapter 22
01:31:40.870 : en:Chapter 23
01:36:56.894 : en:Chapter 24
pb.wtf



Скачать Аппассионата через торрент https://d.radikal.ru/d30/1904/18/d5a10546c8dd.jpg Скачать, смотреть онлайн Аппассионата бесплантно в хорошем качестве О фильме: Необычно складываются отношения в семье врача-стоматолога: дочь-старшеклассница ненавидит свою психически больную мать, в прошлом ... 5 10 1
Торрент: Зарегистрирован [2019-04-01 05:11] · скачан: 11 раз
Статус: √ проверено
Размер: 4.29 GB
Как cкачать? Как скачать Аппассионата через торрент | UTorrent

% Раздел Тема Автор DL S | L
Фильмы с авторской озвучкой [ 11.88 GB ] Аппассионата / Appassionata [1974 BDRip 1080p by msltel] AVO msltel Скачать
1 | 0
Фильмы с авторской озвучкой [ 23.51 GB ] Аппассионата / Appassionata [1974 эротика Blu-Ray Remux 1080p] AVO Леонид Ильич Скачать
1 | 0

28-11-2019 20:33  

Отключить всю рекламу на сайте

    Дорогой пользователь! Огромная просьба, поблагодарите релизера, оцените раздачу и оставьте свои комментарий, если Вы скачали Аппассионата через торрент бесплатно!
    Комментировать посты могут только пользователи прошедшие не сложную регистрацию
    Показать сообщения:    

    Аппассионата через торрент
    Скачать бесплатно Аппассионата
    Аппассионата скачать торрент
    Аппассионата смотреть онлайн
    Cкачать фильм Аппассионата бесплатно
    Аппассионата скачать торрент в хорошем качестве
    Аппассионата смотреть онлайн бесплатно в хорошем качестве


    Вы не можете начинать темы
    Вы не можете отвечать на сообщения
    Вы не можете редактировать свои сообщения
    Вы не можете удалять свои сообщения
    Вы не можете голосовать в опросах
    Вы не можете прикреплять файлы к сообщениям
    Вы можете скачивать файлы