Ссылка на приватное зеркало всего за 1$. Внимание количество ограничено!!!

OK

1+1

iTunes

мы

OK

1

WEB-DLRip

Джокер

Пифагор

Ведьмак / The Witcher сериал

Лицензия

ПШазам

ОК

Оно 2

iTunes

30
pack

Вам бонус

ВАЖНО

!!Акция!!

Alien_RageХит недели

RePack

Resident Evil 21

ИГРА 18+

pack

RePack

jed

RePack

fifa19

RePack

Assassins Creed: Odyssey

RePack

NEED FOR SPEED™ PAYBACK

4 сезон

9 сезон

Бесстыжие 9 сезон

Все сериалы

все сериалы на PB.wtf

RePack

FAR CRY 5
  

Мое Дорогое Братство / Mi querida cofradía / Hopelessly Devout (Марта Диас де Лопе Диас) [2018, драма, комедия, BDRip 720p] MVO ["Синема УС"] pb.wtf

Мое Дорогое Братство через торрент pb.wtf

Размер: 4.41 GB | Добавлен: 9 мес. назад | Торрент скачан:7 раз
Скачать  

01-04-2019 06:21 Мое Дорогое Братство Скачать торрент  

Мое Дорогое Братство / Mi querida cofradía / Hopelessly Devout Год выпуска: 2018
Страна: Испания
Жанр: драма, комедия
Продолжительность: 01:28:29
Перевод: Любительский (многоголосый) | "Синема УС"
Субтитры: отсутствуют

Режиссер: Марта Диас де Лопе Диас

rating

В ролях:

Глория Муньос, Пепа Аниорте, Хуан Хеа, Росио Гарсия Молина, Хоакин Нуньес, Мануэль Морон, Кармен Флорес, Алехандро Альбаррасин, Росарио Пардо, Хуан Санчес Родригес

Описание:

Действие фильма происходит на юге Испании. Главная героиня - женщина, пытающаяся занять пост президента католического братства в мире, традиционно принадлежащем мужчинам.

Качество: BDRip 720p
Формат: MKV

Видео: h.264, 6 691 Кбит/с, 1280x536
Аудио: Русский (AC3, 2 ch, 448 Кбит/с)
скриншот  скриншот  скриншот  

Общее
Уникальный идентификатор : 174889364669162379031462104608917463134 (0x839277686C4F92AAB60E769A8D94A05E)
Полное имя : D:\Hopelessly.Devout.2018.P.BDRip.72Op.mkv
Формат : Matroska
Версия формата : Version 2
Размер файла : 4,41 Гбайт
Продолжительность : 1 ч. 28 м.
Режим общего битрейта : Переменный
Общий поток : 7141 Кбит/сек
Дата кодирования : UTC 2019-03-31 15:56:53
Программа кодирования : mkvmerge v8.3.0 ('Over the Horizon') 64bit
Библиотека кодирования : libebml v1.3.1 + libmatroska v1.4.2

Видео
Идентификатор : 1
Формат : AVC
Формат/Информация : Advanced Video Codec
Профиль формата : High@L4.1
Параметр CABAC формата : Да
Параметр RefFrames формата : 4 кадра
Идентификатор кодека : V_MPEG4/ISO/AVC
Продолжительность : 1 ч. 28 м.
Вид битрейта : Переменный
Битрейт : 6691 Кбит/сек
Максимальный битрейт : 7500 Кбит/сек
Ширина : 1280 пикселей
Высота : 536 пикселей
Соотношение сторон : 2,40:1
Режим частоты кадров : Постоянный
Частота кадров : 23,976 (24000/1001) кадра/сек
Стандарт вещания : Component
Цветовое пространство : YUV
Субдискретизация насыщенности : 4:2:0
Битовая глубина : 8 бит
Тип развёртки : Прогрессивная
Бит/(Пиксели*Кадры) : 0.398
Размер потока : 4,05 Гбайт (92%)
Default : Да
Forced : Нет
Цветовой диапазон : Limited
Основные цвета : BT.709
Характеристики трансфера : BT.709
Коэффициенты матрицы : BT.709

Аудио
Идентификатор : 2
Формат : AC-3
Формат/Информация : Audio Coding 3
Расширение режима : CM (complete main)
Параметр Endianness формата : Big
Идентификатор кодека : A_AC3
Продолжительность : 1 ч. 28 м.
Вид битрейта : Постоянный
Битрейт : 448 Кбит/сек
Каналы : 2 канала
Расположение каналов : Front: L R
Частота : 48,0 КГц
Частота кадров : 31,250 кадров/сек (1536 spf)
Метод сжатия : С потерями
Размер потока : 284 Мбайт (6%)
Default : Да
Forced : Нет

pb.wtf



Скачать Мое Дорогое Братство через торрент https://c.radikal.ru/c21/1904/e3/153482bbf688.jpg Скачать фильм Мое Дорогое Братство через торрент бесплантно в хорошем качестве Описание: Действие фильма происходит на юге Испании. Главная героиня - женщина, пытающаяся занять пост президента католического братства в ... 10 10 3
Торрент: Зарегистрирован [2019-04-01 06:21] · скачан: 7 раз
Статус: # сомнительно
Размер: 4.41 GB
Как cкачать? Как скачать Мое Дорогое Братство через торрент | qTorrent

% Раздел Тема Автор DL S | L
T Фильмы (мультфильмы) cо спонсором показа (Новинки AVI/MKV) [ 1.37 GB ] Мое Дорогое Братство / Mi querida cofradía / Hopelessly Devout [2018 HDRip] MVO ["Синема УС"] bober100 Скачать
1 | 0

28-11-2019 20:33  

Отключить всю рекламу на сайте

    Дорогой пользователь! Огромная просьба, поблагодарите релизера, оцените раздачу и оставьте свои комментарий, если Вы скачали Мое Дорогое Братство через торрент бесплатно! Внесите свою лепту в развитие PiratBit!
    Комментировать посты могут только пользователи прошедшие не сложную регистрацию
    Показать сообщения:    

    Мое Дорогое Братство через торрент
    Скачать бесплатно Мое Дорогое Братство
    Мое Дорогое Братство скачать торрент
    Мое Дорогое Братство смотреть онлайн
    Cкачать фильм Мое Дорогое Братство бесплатно
    Мое Дорогое Братство скачать торрент в хорошем качестве
    Мое Дорогое Братство смотреть онлайн бесплатно в хорошем качестве


    Вы не можете начинать темы
    Вы не можете отвечать на сообщения
    Вы не можете редактировать свои сообщения
    Вы не можете удалять свои сообщения
    Вы не можете голосовать в опросах
    Вы не можете прикреплять файлы к сообщениям
    Вы можете скачивать файлы