новый адрес
Ссылка на приватное зеркало всего за 1$. Внимание количество ограничено!!!

iTunes

1+1

iTunes

мы

WEB-DL

1

iTunes

Чернобыль

iTunes

Ральф против интернета

Лицензия

ПШазам

Лицензия

Оно 2

Лицензия

30
pack

Вам бонус

ВАЖНО

!!Акция!!

Alien_RageХит недели

RePack

Resident Evil 21

ИГРА 18+

pack

RePack

jed

!!Акция!!

Alien_Rage

RePack

fifa19

RePack

Assassins Creed: Odyssey

RePack

NEED FOR SPEED™ PAYBACK

3 сезон

9 сезон

Бесстыжие 9 сезон

Все сериалы

все сериалы на PB.wtf

RePack

FAR CRY 5
Ребята, катастрофически не хватает 1900р. для оплаты серверов за Октябрь (всвязи с блокировками трафик упал в 3 раза), 1-2р., выручайте.
  

100 вещей и ничего лишнего / 100 Dinge (Флориан Давид Фиц) [2018, комедия, WEB-DLRip-AVC] DUB (rus, ukr) [iTunes] pb.wtf

100 вещей и ничего лишнего через торрент pb.wtf

Раздают: 2 [ 0 KB/s ]
Размер: 2.3 GB | Добавлен: 6 мес. назад | Торрент скачан:147 раз
Скачать  

01-04-2019 06:36 100 вещей и ничего лишнего Скачать торрент  

100 вещей и ничего лишнего / 100 Dinge
Год выпуска: 2018
Страна: Германия
Жанр: комедия
Продолжительность: 01:46:15
Перевод: Дублированный | iTunes
Субтитры: Русские, литовские

Режиссер: Флориан Давид Фиц

rating

В ролях:

Флориан Давид Фиц, Маттиас Швайгхёфер, Мириам Штайн, Ханнелоре Эльснер, Вольфганг Штумф, Катарина Тальбах, Йоханнес Алльмайер, Сара Виктория Фрик, Макс Бретшнайдер, Мария Фуртвенглер

Описание:

Лучшие друзья Пауль и Тони, находясь буквально в шаге от богатства, на спор отказываются от всего своего имущества, чтобы доказать - вещи не имеют на парней никакого влияния. Ставки высоки, а их пари оказывается под угрозой, когда на горизонте появляется симпатичная девушка, ведь сложно произвести впечатление, когда ты миллионер без штанов...

Качество: WEB-DLRip-AVC
Формат: MKV

Видео: 2322 Кбит/с, 1024х424
Аудио#1: 48 kHz, AC3, 5.1, 384 Kbps | iTunes | RUS |
Аудио#2: 48 kHz, AC3, 5.1, 384 Kbps | iTunes | UKR |
скриншот  скриншот  скриншот  скриншот  

Общее
Уникальный идентификатор : 224225429187485938180771542990805775273 (0xA8B03F30ADB6261A23D30D9D4D7BB3A9)
Полное имя : D:\100 вещей и ничего лишнего.2018.WEB-DLRip (AVC) by Аристократ.mkv
Формат : Matroska
Версия формата : Version 4 / Version 2
Размер файла : 2,30 Гбайт
Продолжительность : 1 ч. 46 м.
Общий поток : 3095 Кбит/сек
Дата кодирования : UTC 2019-05-09 10:50:02
Программа кодирования : Lavf57.71.100
Библиотека кодирования : Lavf57.71.100 / Lavf57.71.100
ErrorDetectionType : Per level 1

Видео
Идентификатор : 1
Формат : AVC
Формат/Информация : Advanced Video Codec
Профиль формата : Main@L3.1
Параметр CABAC формата : Да
Параметр RefFrames формата : 1 кадр
Параметр GOP формата : M=1, N=25
Идентификатор кодека : V_MPEG4/ISO/AVC
Продолжительность : 1 ч. 46 м.
Вид битрейта : Постоянный
Битрейт : 2322 Кбит/сек
Ширина : 1024 пикселя
Высота : 424 пикселя
Соотношение сторон : 2,40:1
Режим частоты кадров : Постоянный
Частота кадров : 25,000 кадров/сек
Цветовое пространство : YUV
Субдискретизация насыщенности : 4:2:0
Битовая глубина : 8 бит
Тип развёртки : Прогрессивная
Бит/(Пиксели*Кадры) : 0.214
Размер потока : 1,68 Гбайт (73%)
Заголовок : Main Program
Язык : English
Default : Да
Forced : Нет
Statistics Tags Issue : mkvmerge v8.5.1 ('Where you lead I will follow') 64bit 2019-05-09 10:50:02 / Lavf57.71.100 2019-05-09 10:50:02
FromStats_BitRate : 4053047
FromStats_Duration : 01:46:15.160000000
FromStats_FrameCount : 159378
FromStats_StreamSize : 3229833003

Аудио #1
Идентификатор : 2
Формат : AC-3
Формат/Информация : Audio Coding 3
Расширение режима : CM (complete main)
Параметр Endianness формата : Big
Идентификатор кодека : A_AC3
Продолжительность : 1 ч. 46 м.
Вид битрейта : Постоянный
Битрейт : 384 Кбит/сек
Каналы : 6 каналов
Расположение каналов : Front: L C R, Side: L R, LFE
Частота : 48,0 КГц
Частота кадров : 31,250 кадров/сек (1536 spf)
Битовая глубина : 32 бит
Метод сжатия : С потерями
Размер потока : 292 Мбайт (12%)
Заголовок : Russian DUB from iTunes Russia DD 5.1
Язык : Russian
Default : Да
Forced : Нет
Statistics Tags Issue : mkvmerge v8.5.1 ('Where you lead I will follow') 64bit 2019-05-09 10:50:02 / Lavf57.71.100 2019-05-09 10:50:02
FromStats_BitRate : 384000
FromStats_Duration : 01:46:15.168000000
FromStats_FrameCount : 199224
FromStats_StreamSize : 306008064

Аудио #2
Идентификатор : 3
Формат : AC-3
Формат/Информация : Audio Coding 3
Расширение режима : CM (complete main)
Параметр Endianness формата : Big
Идентификатор кодека : A_AC3
Продолжительность : 1 ч. 46 м.
Вид битрейта : Постоянный
Битрейт : 384 Кбит/сек
Каналы : 6 каналов
Расположение каналов : Front: L C R, Side: L R, LFE
Частота : 48,0 КГц
Частота кадров : 31,250 кадров/сек (1536 spf)
Битовая глубина : 32 бит
Метод сжатия : С потерями
Размер потока : 292 Мбайт (12%)
Заголовок : Ukrainian DUB from iTunes Russia DD 5.1
Язык : Ukrainian
Default : Да
Forced : Нет
Statistics Tags Issue : mkvmerge v8.5.1 ('Where you lead I will follow') 64bit 2019-05-09 10:50:02 / Lavf57.71.100 2019-05-09 10:50:02
FromStats_BitRate : 384000
FromStats_Duration : 01:46:15.168000000
FromStats_FrameCount : 199224
FromStats_StreamSize : 306008064

Текст #1
Идентификатор : 4
Формат : UTF-8
Идентификатор кодека : S_TEXT/UTF8
Идентификатор кодека/Информация : UTF-8 Plain Text
Заголовок : Russian Subtitle
Язык : Russian
Default : Да
Forced : Нет
Statistics Tags Issue : mkvmerge v8.5.1 ('Where you lead I will follow') 64bit 2019-05-09 10:50:02 / Lavf57.71.100 2019-05-09 10:50:02
FromStats_BitRate : 230
FromStats_Duration : 01:41:31.439000000
FromStats_FrameCount : 1612
FromStats_StreamSize : 174996

Текст #2
Идентификатор : 5
Формат : UTF-8
Идентификатор кодека : S_TEXT/UTF8
Идентификатор кодека/Информация : UTF-8 Plain Text
Заголовок : Lithuanian Subtitle
Язык : Lithuanian
Default : Да
Forced : Нет
Statistics Tags Issue : mkvmerge v8.5.1 ('Where you lead I will follow') 64bit 2019-05-09 10:50:02 / Lavf57.71.100 2019-05-09 10:50:02
FromStats_BitRate : 184
FromStats_Duration : 01:41:31.439000000
FromStats_FrameCount : 1622
FromStats_StreamSize : 140031

pb.wtf



Скачать 100 вещей и ничего лишнего через торрент https://a.radikal.ru/a04/1905/b1/2e67a9223d17.png Скачать фильм 100 вещей и ничего лишнего через торрент бесплантно в хорошем качестве Описание: Лучшие друзья Пауль и Тони, находясь буквально в шаге от богатства, на спор отказываются от всего своего имущества, чтобы ... 10 10 4
Торрент: Зарегистрирован [2019-05-18 02:04] · скачан: 147 раз
Статус: √ проверено
Размер: 2.3 GB
Как cкачать? Как скачать 100 вещей и ничего лишнего через торрент | qTorrent

% Раздел Тема Автор DL S | L
Фильмы 2018 [DVDrip, WEB-DLRip, HDrip] (DUB, MVO) [ 2.13 GB ] 100 вещей и ничего лишнего / 100 Dinge [2018 BDRip] - Twi7ter Скачать
69 | 5
Фильмы 2018 [DVDrip, WEB-DLRip, HDrip] (DUB, MVO) [ 1.41 GB ] 100 вещей и ничего лишнего / 100 Dinge [2018 BDRip] - Twi7ter Скачать
20 | 1
Фильмы [HD 720p, 1080p] (Хороший звук DUB, MVO) [ 5.34 GB ] 100 вещей и ничего лишнего / 100 Dinge [2018 BDRip 720p] DUB bober100 Скачать
1 | 0
Фильмы 2018 [DVDrip, WEB-DLRip, HDrip] (DUB, MVO) [ 1.41 GB ] 100 вещей и ничего лишнего / 100 Dinge [2018 BDRip] bober100 Скачать
1 | 0
Фильмы [HD 720p, 1080p] (Хороший звук DUB, MVO) [ 10.66 GB ] 100 вещей и ничего лишнего / 100 Dinge [2018 BDRip 1080p] DUB bober100 Скачать
2 | 0
Фильмы (Blu-ray, BD-Remux, HDDVD) [ 30.42 GB ] 100 вещей и ничего лишнего / 100 Dinge [2018 BD Remux 1080p] DUB bober100 Скачать
1 | 0
Фильмы (WEB-DL 720p, 1080p) [ 4.42 GB ] 100 вещей и ничего лишнего / 100 Dinge [2018 WEB-DL 1080p] DUB bober100 Скачать
2 | 0


Последний раз редактировалось: bober100 (2019-05-18 02:04), всего редактировалось 2 раз(а)

28-11-2019 20:33  

Отключить всю рекламу на сайте

    Дорогой пользователь! Огромная просьба, поблагодарите релизера, оцените раздачу и оставьте свои комментарий, если Вы скачали 100 вещей и ничего лишнего через торрент бесплатно! Внесите свою лепту в развитие PiratBit!
    Комментировать посты могут только пользователи прошедшие не сложную регистрацию
    Показать сообщения:    

    100 вещей и ничего лишнего через торрент
    Скачать бесплатно 100 вещей и ничего лишнего
    100 вещей и ничего лишнего скачать торрент
    100 вещей и ничего лишнего смотреть онлайн
    Cкачать фильм 100 вещей и ничего лишнего бесплатно
    100 вещей и ничего лишнего скачать торрент в хорошем качестве
    100 вещей и ничего лишнего смотреть онлайн бесплатно в хорошем качестве


    Вы не можете начинать темы
    Вы не можете отвечать на сообщения
    Вы не можете редактировать свои сообщения
    Вы не можете удалять свои сообщения
    Вы не можете голосовать в опросах
    Вы не можете прикреплять файлы к сообщениям
    Вы можете скачивать файлы