Ссылка на приватное зеркало нашего сайта всего за 1$. Внимание количество ограничено!!!

2 сезон

iTunes

1 сезон

1

2 сезон

2 сезон

iTunes

1 сезон

RePack

30

Ultimate

ВАЖНО

ИГРА 18+

pack

RePack

MK11
pack

Забери бонус

RePack

jed

!!Акция!!

Alien_Rage

RePack

fifa19

RePack

Assassins Creed: Odyssey

RePack

NEED FOR SPEED™ PAYBACK

4 сезон

9 сезон

Бесстыжие 9 сезон

Все сериалы

все сериалы на PB.wtf

RePack

FAR CRY 5
  

Вспомнить всё / Souviens-toi / Сезон: 1 / Серии: 1-6 из 6 (Пьер Акнин) [2017, триллер, драма, криминал, HDTVRip] MVO [Кинопремьера] pb.wtf

Вспомнить всё через торрент pb.wtf

Размер: 3.85 GB | Добавлен: 1 год 7 мес. назад | Торрент скачан:37 раз
Скачать  

01-04-2019 07:37 Вспомнить всё Скачать торрент  

Вспомнить всё / Souviens-toi Год выпуска: 2017
Страна: Франция
Жанр: триллер, драма, криминал
Продолжительность: ~00:46:00 серия
Перевод: Профессиональный (многоголосый закадровый) | Кинопремьера
Субтитры: отсутствуют

Режиссёр: Пьер Акнин

В ролях:

Сами Буажила, Мари Жиллен, Зели Риксон, Жюли-Анна Рот, Корентен Лобе, Филипп Дюкло, Беранжер Бонвуазен, Ив Пиньо, Пьер Лоттен

Описание:

Тела покрыты кровью, но ран нет. 7-летняя дочь пары, Мадлен, чудесным образом цела. Но травмированная девушка потеряла память и не может произнести ни слова. Почему она осталась невредимой? Есть еще один проблемный вопрос: двери дома были заперты изнутри, и нет никаких признаков взлома. Капитан Белгард берет дело на себя и приводит Мари Кемпф, психиатра, которая потеряла свою собственную дочь, Лайлу, несколькими годами ранее. Белград также расследовал это дело, признав его самоубийством. Сначала Мари неохотно соглашается помочь при условии, что Белгард возобновит дело ее дочери, которое она отказывается считать самоубийством. Они заключают сделку, и Мари берет Мадлен к себе домой, чтобы лечить ее, надеясь заставить маленькую девочку начать говорить и возродить ее память.

rating

Качество: HDTVRip
Формат: AVI

Видео: XVID, 704x352, 25 fps, ~1800 kbps avg, ~0.29 bit/pixel
Аудио: Russian (AC3, 2 ch, 192 kbps, 16 bits, 48.0 KHz) - MVO
General
Complete name : D:\Souviens-toi.2017.HDTVRip\Souviens-toi.S01.E01.HDTVRip.avi
Format : AVI
Format/Info : Audio Video Interleave
File size : 668 MiB
Duration : 46 min 42 s
Overall bit rate : 2 000 kb/s
Writing application : VirtualDubMod 1.5.10.3 | www.virtualdub-fr.org || (build 2550/release)
Writing library : VirtualDubMod build 2550/release

Video
ID : 0
Format : MPEG-4 Visual
Format profile : Advanced Simple@L5
Format settings : BVOP1
Format settings, BVOP : 1
Format settings, QPel : No
Format settings, GMC : No warppoints
Format settings, Matrix : Default (MPEG)
Codec ID : XVID
Codec ID/Hint : XviD
Duration : 46 min 42 s
Bit rate : 1 798 kb/s
Width : 704 pixels
Height : 352 pixels
Display aspect ratio : 2.000
Frame rate : 25.000 FPS
Color space : YUV
Chroma subsampling : 4:2:0
Bit depth : 8 bits
Scan type : Progressive
Compression mode : Lossy
Bits/(Pixel*Frame) : 0.290
Stream size : 601 MiB (90%)
Writing library : XviD 73

Audio
ID : 1
Format : AC-3
Format/Info : Audio Coding 3
Codec ID : 2000
Duration : 46 min 42 s
Bit rate mode : Constant
Bit rate : 192 kb/s
Channel(s) : 2 channels
Channel positions : Front: L R
Sampling rate : 48.0 kHz
Frame rate : 31.250 FPS (1536 SPF)
Bit depth : 16 bits
Compression mode : Lossy
Stream size : 64.1 MiB (10%)
Alignment : Split accross interleaves
Interleave, duration : 40 ms (1.00 video frame)
Interleave, preload duratio : 500 ms
Service kind : Complete Main
скриншот  скриншот  скриншот  скриншот  

скриншот  скриншот  скриншот  скриншот  
pb.wtf



Скачать Вспомнить всё через торрент https://i110.fastpic.ru/big/2019/0401/0c/2bc7b68bc7a13e51b000eadd745e5f0c.jpg Скачать фильм Вспомнить всё через торрент бесплантно в хорошем качестве Описание: Тела покрыты кровью, но ран нет. 7-летняя дочь пары, Мадлен, чудесным образом цела. Но травмированная девушка потеряла память и ... 7.8 10 5
Торрент: Зарегистрирован [2019-04-01 07:37] · скачан: 37 раз
Статус: √ проверено
Размер: 3.85 GB
Как cкачать? Как скачать Вспомнить всё через торрент | qTorrent

28-11-2019 20:33  

Отключить всю рекламу на сайте

    Дорогой пользователь! Огромная просьба, поблагодарите релизера, оцените раздачу и оставьте свои комментарий, если Вы скачали Вспомнить всё через торрент бесплатно! Внесите свою лепту в развитие PiratBit!
    Комментировать посты могут только пользователи прошедшие не сложную регистрацию
    Показать сообщения:    

    Вспомнить всё через торрент
    Скачать бесплатно Вспомнить всё
    Вспомнить всё скачать торрент
    Вспомнить всё смотреть онлайн
    Cкачать фильм Вспомнить всё бесплатно
    Вспомнить всё скачать торрент в хорошем качестве
    Вспомнить всё смотреть онлайн бесплатно в хорошем качестве


    Вы не можете начинать темы
    Вы не можете отвечать на сообщения
    Вы не можете редактировать свои сообщения
    Вы не можете удалять свои сообщения
    Вы не можете голосовать в опросах
    Вы не можете прикреплять файлы к сообщениям
    Вы можете скачивать файлы