Ссылка на приватное зеркало всего за 1$. Внимание количество ограничено!!!

OK

1+1

iTunes

мы

OK

1

WEB-DLRip

Джокер

Пифагор

Ведьмак / The Witcher сериал

Лицензия

ПШазам

ОК

Оно 2

iTunes

30
pack

Вам бонус

ВАЖНО

!!Акция!!

Alien_RageХит недели

RePack

Resident Evil 21

ИГРА 18+

pack

RePack

jed

!!Акция!!

Alien_Rage

RePack

fifa19

RePack

Assassins Creed: Odyssey

RePack

NEED FOR SPEED™ PAYBACK

4 сезон

9 сезон

Бесстыжие 9 сезон

Все сериалы

все сериалы на PB.wtf

RePack

FAR CRY 5
  

Лига справедливости против Смертоносной пятерки / Justice League vs the Fatal Five (Сэм Лью) [2019, мультфильм, фантастика, фэнтези, WEB-DL 720p] MVO ["Синема УС"] pb.wtf

Лига справедливости против Смертоносной пятерки через торрент pb.wtf

Размер: 2.96 GB | Добавлен: 9 мес. назад | Торрент скачан:215 раз
Скачать  

01-04-2019 11:04 Лига справедливости против Смертоносной пятерки Скачать торрент  

Лига справедливости против Смертоносной пятерки / Justice League vs the Fatal Five Год выпуска: 2019
Страна: США
Жанр: мультфильм, фантастика, фэнтези
Продолжительность: 01:10:28
Перевод: Любительский (многоголосый) | "Синема УС"
Субтитры: отсутствуют

Режиссер: Сэм Лью

rating

В ролях:

Дайан Герреро, Тара Стронг, Ноэль Фишер, Том Кенни, Элиес Габел, Джордж Ньюберн, Кевин Майкл Ричардсон, Даниэла Бобадилла, Кевин Конрой, Сумали Монтано

Описание:

Лига Справедливости возникла после того, как главные супергерои Америки поняли, что вместе им проще сражаться со злодеями. Особенно актуальным такое объединение становилось тогда, когда противник был невероятно силен, или их было несколько. В одиночку супергероям было труднее совладать с врагом. В то время как объединение нескольких супергероев, позволяло им в разы увеличивать свою силу и синхронизировать сверхъестественные способности. В начале своего становления Лига Справедливости состояла из Бэтмена, Супермена, Флеша, Зеленого Фонаря и Женщины-кошки и нескольких других супергероев. Позже этот состав менялся, однако это никак не влияло на общую работоспособность и умению противостоять противникам. Сколько раз участникам Лиги Справедливости приходилось спасать мир - не сосчитать. Каждый из супергероев понимает, что успех их общего дела зависит от мастерства и умения каждого из них в частности. После того, как супергерои стали объединятся в общую команду, злодеи всего мира поняли, что так просто им не совладать с ребятами. Они стали вынашивать коварные планы, чтобы уничтожить Лигу Справедливости, и для этого тоже стали объединять свои усилия. Именно так была создана Смертоносная Пятерка, в состав которой вошли самые жестокие и опасные злодеи мира. Лиге Справедливости предстоит выдержать очень мощный удар, и в который раз доказать, что им нет равных в силе и ловкости. Но смогут ли они противостоять столь серьезным противникам?

Качество: WEB-DL 720p
Формат: MKV

Видео: h.264, 4 940 Кбит/с, 1280x720
Аудио: Русский, (AC3, 2 ch, 384 Кбит/с)
скриншот  скриншот  скриншот  

Общее
Уникальный идентификатор : 231444409485487938739702715365337056734 (0xAE1E92660043AE92A437FEFDCC0BC5DE)
Полное имя : D:\Justice.League.vs.the.Fatal.Five.2019.P.WEB-DL.72Op.mkv
Формат : Matroska
Версия формата : Version 2
Размер файла : 2,96 Гбайт
Продолжительность : 1 ч. 19 м.
Режим общего битрейта : Переменный
Общий поток : 5325 Кбит/сек
Дата кодирования : UTC 2019-03-31 16:55:36
Программа кодирования : mkvmerge v8.3.0 ('Over the Horizon') 64bit
Библиотека кодирования : libebml v1.3.1 + libmatroska v1.4.2

Видео
Идентификатор : 1
Формат : AVC
Формат/Информация : Advanced Video Codec
Профиль формата : High@L4.1
Параметр CABAC формата : Да
Параметр RefFrames формата : 4 кадра
Идентификатор кодека : V_MPEG4/ISO/AVC
Продолжительность : 1 ч. 19 м.
Вид битрейта : Переменный
Битрейт : 4940 Кбит/сек
Максимальный битрейт : 6000 Кбит/сек
Ширина : 1280 пикселей
Высота : 720 пикселей
Соотношение сторон : 16:9
Режим частоты кадров : Постоянный
Частота кадров : 23,976 (24000/1001) кадра/сек
Стандарт вещания : Component
Цветовое пространство : YUV
Субдискретизация насыщенности : 4:2:0
Битовая глубина : 8 бит
Тип развёртки : Прогрессивная
Бит/(Пиксели*Кадры) : 0.219
Размер потока : 2,68 Гбайт (91%)
Default : Да
Forced : Нет
Цветовой диапазон : Limited
Основные цвета : BT.709
Характеристики трансфера : BT.709
Коэффициенты матрицы : BT.709

Аудио
Идентификатор : 2
Формат : AC-3
Формат/Информация : Audio Coding 3
Расширение режима : CM (complete main)
Параметр Endianness формата : Big
Идентификатор кодека : A_AC3
Продолжительность : 1 ч. 19 м.
Вид битрейта : Постоянный
Битрейт : 384 Кбит/сек
Каналы : 2 канала
Расположение каналов : Front: L R
Частота : 48,0 КГц
Частота кадров : 31,250 кадров/сек (1536 spf)
Метод сжатия : С потерями
Размер потока : 218 Мбайт (7%)
Default : Да
Forced : Нет

pb.wtf



Скачать Лига справедливости против Смертоносной пятерки через торрент https://b.radikal.ru/b04/1904/d8/b54942cd6818.jpg Скачать фильм Лига справедливости против Смертоносной пятерки через торрент бесплантно в хорошем качестве Описание: Лига Справедливости возникла после того, как главные супергерои Америки поняли, что вместе им проще сражаться со злодеями. ... 10 10 4
Торрент: Зарегистрирован [2019-04-01 11:04] · скачан: 215 раз
Статус: T временная
Размер: 2.96 GB
Как cкачать? Как скачать Лига справедливости против Смертоносной пятерки через торрент | qTorrent

% Раздел Тема Автор DL S | L
T Фильмы (мультфильмы) cо спонсором показа (Новинки AVI/MKV) [ 1.37 GB ] Лига справедливости против Смертоносной пятерки / Justice League vs the Fatal Five [2019 мультфильм WEB-DLRip] MVO ["Синема УС"] bober100 Скачать
1 | 0

28-11-2019 20:33  

Отключить всю рекламу на сайте

    Дорогой пользователь! Огромная просьба, поблагодарите релизера, оцените раздачу и оставьте свои комментарий, если Вы скачали Лига справедливости против Смертоносной пятерки через торрент бесплатно! Внесите свою лепту в развитие PiratBit!
    Комментировать посты могут только пользователи прошедшие не сложную регистрацию
    Показать сообщения:    

    Лига справедливости против Смертоносной пятерки через торрент
    Скачать бесплатно Лига справедливости против Смертоносной пятерки
    Лига справедливости против Смертоносной пятерки скачать торрент
    Лига справедливости против Смертоносной пятерки смотреть онлайн
    Cкачать фильм Лига справедливости против Смертоносной пятерки бесплатно
    Лига справедливости против Смертоносной пятерки скачать торрент в хорошем качестве
    Лига справедливости против Смертоносной пятерки смотреть онлайн бесплатно в хорошем качестве


    Вы не можете начинать темы
    Вы не можете отвечать на сообщения
    Вы не можете редактировать свои сообщения
    Вы не можете удалять свои сообщения
    Вы не можете голосовать в опросах
    Вы не можете прикреплять файлы к сообщениям
    Вы можете скачивать файлы