Marvel's Avengers Deluxe Edition (супер цена) 159р. Внимание количество ограничено!!!

2 сезон

iTunes

iTunes

1

iTunes

iTunes

iTunes

WEBRip

iTunes

30
pack

Новость дня

ВАЖНО

!!Акция!!

Alien_RageХит недели

RePack

Horizon Zero Dawn

ИГРА 18+

pack

RePack

jed

!!Акция!!

Alien_Rage

RePack

fifa19

RePack

Assassins Creed: Odyssey

RePack

NEED FOR SPEED™ PAYBACK

4 сезон

9 сезон

Бесстыжие 9 сезон

Все сериалы

все сериалы на PB.wtf

RePack

FAR CRY 5
  

Боевой механизм / Swap (Тимоти Вудворд мл) [2016, фантастика, боевик, триллер, BDRip 720p] MVO [Официальный звук] pb.wtf

Боевой механизм через торрент pb.wtf

Раздают: 1 [ 0 KB/s ]
Размер: 4.61 GB | Добавлен: 1 год 5 мес. назад | Торрент скачан:109 раз
Скачать  

01-04-2019 11:34 Боевой механизм Скачать торрент  

Боевой механизм / Swap Год выпуска: 2016
Страна: США
Жанр: фантастика, боевик, триллер
Продолжительность: 01:32:58
Перевод: Профессиональный (многоголосый) | Официальный звук
Субтитры: отсутствуют

Режиссер: Тимоти Вудворд мл

rating

В ролях:

Том Сайзмор, Джонни Месснер, Микки Рурк, Тейлор Коул, Джон Фу, Майкл Паре, Крис Дэймон, Каллен Дж. Чэмберс, Тимоти Вудворд мл., Джон Лофлин

Описание:

Ближайшее будущее, биотехнологии достигли достаточного уровня, чтобы интегрировать воедино человеческую плоть и боевую роботизированную броню. В секретных лабораториях созданы первые, практически непобедимые, солдаты-киборги. Полицейский детектив, расследуя убийство своего сына — жертвы теракта, решает перепрограммировать киборгов и направить их против виновной террористической группировки. Однако, вирус, которым он заражает командную систему биороботов, превращает их в безжалостных убийц всего живого вокруг.

Качество: BDRip 720p
Формат: MKV

Видео: h.264,6 653 Кбит/с, 12800x544
Аудио: Русский (AC3, 2 ch, 448 Кбит/с)
скриншот  скриншот  скриншот  

Общее
Уникальный идентификатор : 217601753965601837618762893301077493296 (0xA3B492C9C697BF3D93DF69930DC7C630)
Полное имя : D:\Swap.2016.Pof.BDRip.72Op.mkv
Формат : Matroska
Версия формата : Version 2
Размер файла : 4,61 Гбайт
Продолжительность : 1 ч. 32 м.
Режим общего битрейта : Переменный
Общий поток : 7103 Кбит/сек
Дата кодирования : UTC 2019-03-31 15:54:33
Программа кодирования : mkvmerge v8.3.0 ('Over the Horizon') 64bit
Библиотека кодирования : libebml v1.3.1 + libmatroska v1.4.2

Видео
Идентификатор : 1
Формат : AVC
Формат/Информация : Advanced Video Codec
Профиль формата : High@L4.1
Параметр CABAC формата : Да
Параметр RefFrames формата : 4 кадра
Идентификатор кодека : V_MPEG4/ISO/AVC
Продолжительность : 1 ч. 32 м.
Вид битрейта : Переменный
Битрейт : 6653 Кбит/сек
Максимальный битрейт : 7500 Кбит/сек
Ширина : 1280 пикселей
Высота : 544 пикселя
Соотношение сторон : 2,35:1
Режим частоты кадров : Постоянный
Частота кадров : 23,976 (24000/1001) кадра/сек
Стандарт вещания : Component
Цветовое пространство : YUV
Субдискретизация насыщенности : 4:2:0
Битовая глубина : 8 бит
Тип развёртки : Прогрессивная
Бит/(Пиксели*Кадры) : 0.390
Размер потока : 4,23 Гбайт (92%)
Default : Да
Forced : Нет
Цветовой диапазон : Limited
Основные цвета : BT.709
Характеристики трансфера : BT.709
Коэффициенты матрицы : BT.709

Аудио
Идентификатор : 2
Формат : AC-3
Формат/Информация : Audio Coding 3
Расширение режима : CM (complete main)
Параметр Endianness формата : Big
Идентификатор кодека : A_AC3
Продолжительность : 1 ч. 32 м.
Вид битрейта : Постоянный
Битрейт : 448 Кбит/сек
Каналы : 2 канала
Расположение каналов : Front: L R
Частота : 48,0 КГц
Частота кадров : 31,250 кадров/сек (1536 spf)
Метод сжатия : С потерями
Размер потока : 298 Мбайт (6%)
Default : Да
Forced : Нет

pb.wtf



Скачать Боевой механизм через торрент http://i75.fastpic.ru/big/2016/0228/7d/ad18938badd9b2c994f7d5dbfdf46f7d.jpg Скачать фильм Боевой механизм через торрент бесплантно в хорошем качестве Описание: Ближайшее будущее, биотехнологии достигли достаточного уровня, чтобы интегрировать воедино человеческую плоть и боевую ... 7 10 3
Торрент: Зарегистрирован [2019-04-01 11:34] · скачан: 109 раз
Статус: # сомнительно
Размер: 4.61 GB
Как cкачать? Как скачать Боевой механизм через торрент | qTorrent

% Раздел Тема Автор DL S | L
T Фильмы [HD 720p, 1080p] (Звук Cam, VO, DVO) [ 4.49 GB ] Боевой механизм / Swap [2016 BDRip 720p] DVO Ворон Скачать
1 | 0
T Фильмы (мультфильмы) cо спонсором показа (Новинки AVI/MKV) [ 1.37 GB ] Боевой механизм / Swap [2016 HDRip] MVO [Официальный звук] bober100 Скачать
1 | 0
T Фильмы 2016 (Звук TS, Cam, VO, DVO) [ 1.45 GB ] Боевой механизм / Swap [2016 HDRip] DVO Ворон Скачать
1 | 0
T Фильмы 2016 (Звук TS, Cam, VO, DVO) [ 747 MB ] Боевой механизм / Боекомплект / Swap / Weaponized [2016 HDRip by _Один_777] DVO без рекламы Один 777 Скачать
1 | 0

28-11-2019 20:33  

Отключить всю рекламу на сайте

    Дорогой пользователь! Огромная просьба, поблагодарите релизера, оцените раздачу и оставьте свои комментарий, если Вы скачали Боевой механизм через торрент бесплатно! Внесите свою лепту в развитие PiratBit!
    Комментировать посты могут только пользователи прошедшие не сложную регистрацию
    Показать сообщения:    

    Боевой механизм через торрент
    Скачать бесплатно Боевой механизм
    Боевой механизм скачать торрент
    Боевой механизм смотреть онлайн
    Cкачать фильм Боевой механизм бесплатно
    Боевой механизм скачать торрент в хорошем качестве
    Боевой механизм смотреть онлайн бесплатно в хорошем качестве


    Вы не можете начинать темы
    Вы не можете отвечать на сообщения
    Вы не можете редактировать свои сообщения
    Вы не можете удалять свои сообщения
    Вы не можете голосовать в опросах
    Вы не можете прикреплять файлы к сообщениям
    Вы можете скачивать файлы