Ссылка на приватное зеркало нашего сайта всего за 1$. Внимание количество ограничено!!!

2 сезон

iTunes

1 сезон

1

iTunes

iTunes

iTunes

1 сезон

RePack

30

ИГРА 18+

pack

ВАЖНО

!!Акция!!

Alien_RageХит недели

RePack

MK11
pack

Забери бонус

RePack

jed

!!Акция!!

Alien_Rage

RePack

fifa19

RePack

Assassins Creed: Odyssey

RePack

NEED FOR SPEED™ PAYBACK

4 сезон

9 сезон

Бесстыжие 9 сезон

Все сериалы

все сериалы на PB.wtf

RePack

FAR CRY 5
  

Подкидыш / Сезон: 1 / Серии: 1-12 из 12 (Антон Борматов) [2019, Детектив, SATRip] pb.wtf

Подкидыш через торрент pb.wtf

Размер: 7.03 GB | Добавлен: 1 год 6 мес. назад | Торрент скачан:203 раза
Скачать  

01-04-2019 12:15 Подкидыш Скачать торрент  

Подкидыш Год выпуска: 2019
Страна: Россия
Жанр: Детектив
Продолжительность: ~ 00:51:00
Субтитры: отсутствуют

Режиссер: Антон Борматов



В ролях:

Антон Шагин, Тимофей Трибунцев, Аглая Тарасова, Евгений Антропов, Сергей Барковский, Семён Шкаликов, Николай Шрайбер, Владимир Глазков, Алексей Фролов, Вероника Голина, Алексей Федькин, Игорь Грабузов, Илья Носков, Степан Бекетов, Александр Ткачев, Макар Кусакин, Эрик Яралов

Описание:

1926 год. Разгар НЭПа. Новгородский жулик Подкидыш, убегая от местных бандитов, попадает в Ленинград. Сотрудники милиции по ошибке принимают его за известного сыщика, которого недавно назначили начальником отдела УГРО. Подкидыш планирует незаметно исчезнуть, но, узнав, что в городе есть большой склад дорогих улик и экспроприированных вещей, решает не торопиться. Ограбить помещение, имея на руках удостоверение милиционера, довольно легко, и преступник продумывает похищение…

Качество: SATRip
Формат: AVI

Видео: XviD, ~ 1520 Кбит/с, 720x400
Аудио: MP3, 2 ch, 192 Кбит/с
скриншот  скриншот  скриншот  скриншот  

Общее
Полное имя : D:\Podkidysh.2018.XviD.SATRip.25Kuzmich\Podkidysh.e01.XviD.SATRip.25Kuzmich.avi
Формат : AVI
Формат/Информация : Audio Video Interleave
Размер файла : 600 Мбайт
Продолжительность : 48 м. 44 с.
Общий поток : 1721 Кбит/сек
Программа кодирования : VirtualDubMod 1.5.10.3 | www.virtualdub-fr.org || (build 2550/release)
Библиотека кодирования : VirtualDubMod build 2550/release

Видео
Идентификатор : 0
Формат : MPEG-4 Visual
Профиль формата : Advanced Simple@L5
Параметр BVOP формата : 1
Параметр QPel формата : Нет
Параметр GMC формата : Без точки перехода
Параметр матрицы формата : Default (MPEG)
Идентификатор кодека : XVID
Идентификатор кодека/Подсказка : XviD
Продолжительность : 48 м. 44 с.
Битрейт : 1520 Кбит/сек
Ширина : 720 пикселей
Высота : 400 пикселей
Соотношение сторон : 16:9
Частота кадров : 25,000 кадров/сек
Цветовое пространство : YUV
Субдискретизация насыщенности : 4:2:0
Битовая глубина : 8 бит
Тип развёртки : Прогрессивная
Метод сжатия : С потерями
Бит/(Пиксели*Кадры) : 0.211
Размер потока : 530 Мбайт (88%)
Библиотека кодирования : XviD 73

Аудио
Идентификатор : 1
Формат : MPEG Audio
Версия формата : Version 1
Профиль формата : Layer 3
Режим : Joint stereo
Идентификатор кодека : 55
Идентификатор кодека/Подсказка : MP3
Продолжительность : 48 м. 44 с.
Вид битрейта : Постоянный
Битрейт : 192 Кбит/сек
Каналы : 2 канала
Частота : 48,0 КГц
Метод сжатия : С потерями
Размер потока : 66,9 Мбайт (11%)
Выравнивание : Соединение по промежуткам
Продолжительность промежутка : 40 мс. (1,00 видеокадр)
Время предзагрузки промежутка : 504 мс.
Библиотека кодирования : LAME3.99r
Настройки программы : -m j -V 4 -q 2 -lowpass 18.6 -b 192

Внимание! Раздача ведётся путём добавления новых серий; при каждом добавлении создётся новый торрент. Чтобы начать докачку новой серии, пользователям необходимо сделать следующее:
(1) остановить скачивание,
(2) удалить старый торрент у себя из клиента (старые серии удалять не надо),
(3) скачать новый торрент и запустить его у себя в клиенте вместо старого, при этом указать клиенту путь в старую папку куда и должно происходить скачивание новых серий.

Ваш клиент при этом должен произвести хеширование (проверку) старой папки (если не производит сам - помогите ему сделать это), и будет докачивать только те серии которых у вас ещё нет. Старые серии при этом не удаляются, а продолжают раздаваться!
Eсли вы уже удалили старые серии, то предотвратить повторную закачку старых серий можно, отжав галочку в соответсвующих местах при запуске нового торрента.
pb.wtf



Скачать Подкидыш через торрент https://b.radikal.ru/b16/1904/58/dca9d088dd2e.jpg Скачать фильм Подкидыш через торрент бесплантно в хорошем качестве Описание: 1926 год. Разгар НЭПа. Новгородский жулик Подкидыш, убегая от местных бандитов, попадает в Ленинград. Сотрудники милиции по ... 9.3 10 12
Торрент: Зарегистрирован [2019-04-06 12:50] · скачан: 203 раз
Статус: √ проверено
Размер: 7.03 GB
Как cкачать? Как скачать Подкидыш через торрент | qTorrent

% Раздел Тема Автор DL S | L
Наши сериалы [ 15.29 GB ] Подкидыш / Сезон: 1 / Серии: 1-12 из 12 [2019 HDTVRip 720p] bober100 Скачать
1 | 0
Наши сериалы [ 20.65 GB ] Подкидыш / Сезон: 1 / Серии: 1-12 из 12 [2019 WEB-DL 1080p] bober100 Скачать
1 | 0
Наши сериалы [ 7.63 GB ] Подкидыш / Сезон: 1 / Серии: 1-12 из 12 [2019 WEB-DLRip] bober100 Скачать
1 | 0


Последний раз редактировалось: bober100 (2019-04-02 04:50), всего редактировалось 1 раз

28-11-2019 20:33  

Отключить всю рекламу на сайте

    Дорогой пользователь! Огромная просьба, поблагодарите релизера, оцените раздачу и оставьте свои комментарий, если Вы скачали Подкидыш через торрент бесплатно! Внесите свою лепту в развитие PiratBit!
    Комментировать посты могут только пользователи прошедшие не сложную регистрацию
    Показать сообщения:    

    Подкидыш через торрент
    Скачать бесплатно Подкидыш
    Подкидыш скачать торрент
    Подкидыш смотреть онлайн
    Cкачать фильм Подкидыш бесплатно
    Подкидыш скачать торрент в хорошем качестве
    Подкидыш смотреть онлайн бесплатно в хорошем качестве


    Вы не можете начинать темы
    Вы не можете отвечать на сообщения
    Вы не можете редактировать свои сообщения
    Вы не можете удалять свои сообщения
    Вы не можете голосовать в опросах
    Вы не можете прикреплять файлы к сообщениям
    Вы можете скачивать файлы