Ссылка на приватное зеркало всего за 1$. Внимание количество ограничено!!!

OK

1+1

iTunes

мы

OK

1

WEB-DLRip

Джокер

Пифагор

Ведьмак / The Witcher сериал

Лицензия

ПШазам

ОК

Оно 2

iTunes

30
pack

Вам бонус

ВАЖНО

!!Акция!!

Alien_RageХит недели

RePack

Resident Evil 21

ИГРА 18+

pack

RePack

jed

!!Акция!!

Alien_Rage

RePack

fifa19

RePack

Assassins Creed: Odyssey

RePack

NEED FOR SPEED™ PAYBACK

4 сезон

9 сезон

Бесстыжие 9 сезон

Все сериалы

все сериалы на PB.wtf

RePack

FAR CRY 5
  

Медальон / The Medallion (Гордон Чан) [2003 г., боевик, триллер, фэнтези, комедия, WEB-DLRip 720p / 60 FPS , Дубляж Лицензия] 60fps от R.G. HD-Films (Open Matte) pb.wtf

Медальон через торрент pb.wtf

Раздают: 2 [ 0 KB/s ]
Размер: 3.49 GB | Добавлен: 9 мес. назад | Торрент скачан:127 раз
Скачать  

01-04-2019 12:47 Медальон Скачать торрент  

Медальон / The Medallion
Год выпуска: 2003
Страна: Гонконг, США
Жанр: боевик, триллер, фэнтези, комедия
Продолжительность: 01:28:35
Перевод: Дубляж Лицензия

Режиссер: Гордон Чан

Бюджет: $41 000 000
Премьера в мире: 15 августа 2003



В ролях: Джеки Чан, Ли Эванс, Клер Форлани, Джулиан Сэндс, Джон Рис-Дэвис, Энтони Вонг Чау-Санг, Кристи Чунг, Йохан Майерс, Алекс Бао, Сиу-Минг Лау, Диана С. Вэн, Чан Тат Квонг, Вэй Чунг Мак, Энтони Карпио, Брюс Кхан, Николас Це, Эдисон Чен, Скотт Эдкинс, Мэтт Рутледж, Рубен Лэнгдон

Описание: Гонконгскому полицейскому Эдди Янгу удается уцелеть в абсолютно безнадежной ситуации. Жизнь ему спасает таинственный магический медальон. Это старинное украшение наделяет Эдди невероятной, сверхчеловеческой мощью, превратив в непобедимого воина. Янг вместе со своей напарницей Николь пытается разгадать тайну медальона, а заодно и дать отпор членам древнего воинского ордена, пытающимся завладеть могущественной реликвией…

Исходник: WEB-DL 1080p | Open Matte
Качество: WEB-DLRip 720p / 60 FPS
Формат: MKV
Видео кодек: H.264
Аудио кодек: AC3
Видео: x264, 1280 x 720 (16:9 ), 5267 kbps, 60,000 fps, ( 0.095 bpp) Open Matte
Аудио#1: AC-3, 48.0 KHz, 6 ch, 384 Kbps (Russian)



скриншот   скриншот   скриншот   скриншот   скриншот   Просьба к переливающим на другие сайты, в оформлении указывайте пожалуйста авторство группы R.G. HD-Films
x264 [info]: profile High, level 4.1
x264 [info]: frame I:2243 Avg QP:16.23 size: 95587 PSNR Mean Y:47.73 U:51.60 V:52.18 Avg:48.69 Global:48.32
x264 [info]: frame P:71287 Avg QP:19.85 size: 27578 PSNR Mean Y:44.88 U:49.64 V:50.12 Avg:45.95 Global:45.51
x264 [info]: frame B:245011 Avg QP:22.71 size: 5367 PSNR Mean Y:44.00 U:49.47 V:49.99 Avg:45.15 Global:44.63
x264 [info]: consecutive B-frames: 1.5% 2.1% 7.0% 15.6% 59.9% 13.9%


Общее
Уникальный идентификатор : 229134227865963999692188391639380912857 (0xAC61A5A695591FDF980860EE2FA3EAD9)
Полное имя : E:\The.Medallion.(2003).WEB-DLRip.720p.(60 Fps).Open.Matte.mkv
Формат : Matroska
Версия формата : Version 4
Размер файла : 3,49 Гбайт
Продолжительность : 1 ч. 28 м.
Общий поток : 5655 Кбит/сек
Название фильма : Медальон / The Medallion (2003) WEB-DLRip 720p (60 Fps) Open Matte
Дата кодирования : UTC 2019-04-01 12:16:31
Программа кодирования : mkvmerge v12.0.0 ('Trust / Lust') 64bit
Библиотека кодирования : libebml v1.3.4 + libmatroska v1.4.5

Видео
Идентификатор : 1
Формат : AVC
Формат/Информация : Advanced Video Codec
Профиль формата : High@L4.1
Настройки формата : CABAC / 8 Ref Frames
Параметр CABAC формата : Да
Параметр RefFrames формата : 8 кадров
Идентификатор кодека : V_MPEG4/ISO/AVC
Продолжительность : 1 ч. 28 м.
Битрейт : 5267 Кбит/сек
Ширина : 1280 пикселей
Высота : 720 пикселей
Соотношение сторон : 16:9
Режим частоты кадров : Постоянный
Частота кадров : 60,000 кадров/сек
Цветовое пространство : YUV
Субдискретизация насыщенности : 4:2:0
Битовая глубина : 8 бит
Тип развёртки : Прогрессивная
Бит/(Пиксели*Кадры) : 0.095
Размер потока : 3,26 Гбайт (93%)
Заголовок : slaventi-69 ( R.G. HD-Films | 60 fps )
Библиотека кодирования : x264 core 130 r2273 b3065e6
Настройки программы : cabac=1 / ref=8 / deblock=1:-3:-3 / analyse=0x3:0x113 / me=umh / subme=9 / psy=1 / psy_rd=1.00:0.00 / mixed_ref=1 / me_range=26 / chroma_me=1 / trellis=2 / 8x8dct=1 / cqm=0 / deadzone=21,11 / fast_pskip=1 / chroma_qp_offset=-2 / threads=10 / lookahead_threads=3 / sliced_threads=0 / nr=0 / decimate=1 / interlaced=0 / bluray_compat=0 / constrained_intra=0 / bframes=5 / b_pyramid=2 / b_adapt=2 / b_bias=0 / direct=2 / weightb=1 / open_gop=0 / weightp=2 / keyint=250 / keyint_min=25 / scenecut=40 / intra_refresh=0 / rc_lookahead=40 / rc=crf / mbtree=1 / crf=17.5 / qcomp=0.60 / qpmin=0 / qpmax=69 / qpstep=4 / ip_ratio=1.40 / aq=1:1.00
Язык : English
Default : Да
Forced : Нет

Аудио
Идентификатор : 2
Формат : AC-3
Формат/Информация : Audio Coding 3
Коммерческое название : Dolby Digital
Идентификатор кодека : A_AC3
Продолжительность : 1 ч. 28 м.
Вид битрейта : Постоянный
Битрейт : 384 Кбит/сек
Каналы : 6 каналов
Channel layout : L R C LFE Ls Rs
Частота : 48,0 КГц
Частота кадров : 31,250 кадров/сек (1536 SPF)
Битовая глубина : 16 бит
Метод сжатия : С потерями
Размер потока : 243 Мбайт (7%)
Заголовок : Dub ( Невафильм )
Язык : Russian
ServiceKind/String : Complete Main
Default : Да
Forced : Нет

Автор рипа: slaventi-69 pb.wtf



Скачать Медальон через торрент http://i101.fastpic.ru/big/2018/0814/42/576cf69d3e70246862b85b0cc9544142.png Скачать фильм Медальон через торрент бесплантно в хорошем качестве Описание: скому полицейскому Эдди Янгу удается уцелеть в абсолютно безнадежной ситуации. Жизнь ему спасает таинственный магический ... 10 10 5
Торрент: Зарегистрирован [2019-04-01 12:47] · скачан: 127 раз
Статус: √ проверено
Размер: 3.49 GB
Как cкачать? Как скачать Медальон через торрент | qTorrent

% Раздел Тема Автор DL S | L
Фильмы 2013 (Звук TS, Cam, VO, DVO) [ 1.45 GB ] Пропавший медальон / The Lost Medallion: The Adventures of Billy Stone [2013 HDRip Любительский одноголосый] GEKADOL Скачать
1 | 0
Фильмы 2001-2005 [ 1.45 GB ] Медальон / The Medallion [2003 Гонконг BDRip +MVO+AVO+ENG Ворон Скачать
2 | 0

28-11-2019 20:33  

Отключить всю рекламу на сайте

    Дорогой пользователь! Огромная просьба, поблагодарите релизера, оцените раздачу и оставьте свои комментарий, если Вы скачали Медальон через торрент бесплатно! Внесите свою лепту в развитие PiratBit!
    Комментировать посты могут только пользователи прошедшие не сложную регистрацию
    Показать сообщения:    

    Медальон через торрент
    Скачать бесплатно Медальон
    Медальон скачать торрент
    Медальон смотреть онлайн
    Cкачать фильм Медальон бесплатно
    Медальон скачать торрент в хорошем качестве
    Медальон смотреть онлайн бесплатно в хорошем качестве


    Вы не можете начинать темы
    Вы не можете отвечать на сообщения
    Вы не можете редактировать свои сообщения
    Вы не можете удалять свои сообщения
    Вы не можете голосовать в опросах
    Вы не можете прикреплять файлы к сообщениям
    Вы можете скачивать файлы