новый адрес
Ссылка на приватное зеркало всего за 1$. Внимание количество ограничено!!!

iTunes

1+1

iTunes

мы

iTunes

1

iTunes

Чернобыль

iTunes

Ральф против интернета

Лицензия

ПШазам

Лицензия

Оно 2

Лицензия

30
pack

Вам бонус

ВАЖНО

!!Акция!!

Alien_RageХит недели

RePack

Resident Evil 21

ИГРА 18+

pack

RePack

jed

!!Акция!!

Alien_Rage

RePack

fifa19

RePack

Assassins Creed: Odyssey

RePack

NEED FOR SPEED™ PAYBACK

3 сезон

9 сезон

Бесстыжие 9 сезон

Все сериалы

все сериалы на PB.wtf

RePack

FAR CRY 5
Ребята, катастрофически не хватает 1900р. для оплаты серверов за Октябрь (всвязи с блокировками трафик упал в 3 раза), 1-2р., выручайте.
  

Грешный ангел (Геннадий Казанский) [1963, СССР, драма, SATRip-AVC от AVP Studio] pb.wtf

Грешный ангел через торрент pb.wtf

Размер: 1.09 GB | Добавлен: 7 мес. назад | Торрент скачан:6 раз
Скачать  

01-04-2019 13:30 Грешный ангел Скачать торрент  

Грешный ангел
Страна: СССР
Производство: Ленфильм

Жанр: драма
Год выпуска: 1963
Продолжительность: 01:29:01

Перевод: Не требуется
Cубтитры: нет
Оригинальная аудиодорожка: русский

Режиссер: Геннадий Казанский

В ролях:
Ольга Красина, Николай Волков (старший), Нина Веселовская, Геннадий Фролов, Юрий Медведев, Борис Чирков, Марк Перцовский, Галина Волчек, Алексей Кожевников, Валерий Денисов, Николай Мельников, Иосиф (Сосо) Абрамашвили, Светлана Балашова, Борис Бархатов...
Об актёрах подробней

Описание:
Четырнадцатилетняя Вера Телегина впервые увидела море, о котором мечтала с детства. Но здесь она оказалась случайно. Когда ее родителей репрессировали, она осталась одна. Старшина милиции Ставриди, узнав о беде девочки, устроил ее в школу-интернат. Многое пришлось пережить Вере, не раз она была на грани отчаяния. Но участие новых друзей, помощь и сочувствие взрослых помогли Вере дожить до весны 1953 года, когда пришла долгожданная телеграмма от родителей.

Исходник: DVB
Качество видео: SATRip-AVC
Формат видео: MKV

Видео: 704->760x570 (4:3), 25,000 кадров/сек, H264 ~ 1555 kbps avg, 0.155 bit/pixel
Аудио: 48 kHz, Dolby Digital AC3 2.0, 192 kbps

Раздача от:
Общее
Полное имя : Greshnyy.angel.1963.SATRip-AVC_[New-team]_by_AVP_Studio.mkv
Формат : Matroska
Версия формата : Version 4
Размер файла : 1,09 Гбайт
Продолжительность : 1 ч. 29 м.
Общий поток : 1749 Кбит/сек
Дата кодирования : UTC 2019-04-01 13:16:18
Программа кодирования : mkvmerge v32.0.0 ('Astral Progressions') 64-bit
Библиотека кодирования : libebml v1.3.7 + libmatroska v1.5.0

Видео
Идентификатор : 1
Формат : AVC
Формат/Информация : Advanced Video Codec
Профиль формата : High@L4.1
Настройки формата : CABAC / 10 Ref Frames
Параметр CABAC формата : Да
Параметр RefFrames формата : 10 кадров
Идентификатор кодека : V_MPEG4/ISO/AVC
Продолжительность : 1 ч. 29 м.
Битрейт : 1555 Кбит/сек
Ширина : 704 пикселя
Высота : 570 пикселей
Соотношение сторон : 4:3
Режим частоты кадров : Постоянный
Частота кадров : 25,000 кадров/сек
Цветовое пространство : YUV
Субдискретизация насыщенности : 4:2:0
Битовая глубина : 8 бит
Тип развёртки : Прогрессивная
Бит/(Пиксели*Кадры) : 0.155
Размер потока : 990 Мбайт (89%)
Язык : Russian
Default : Да
Forced : Нет

Аудио
Идентификатор : 2
Формат : AC-3
Формат/Информация : Audio Coding 3
Коммерческое название : Dolby Digital
Идентификатор кодека : A_AC3
Продолжительность : 1 ч. 29 м.
Вид битрейта : Постоянный
Битрейт : 192 Кбит/сек
Каналы : 2 канала
Channel layout : L R
Частота : 48,0 КГц
Частота кадров : 31,250 кадров/сек (1536 SPF)
Битовая глубина : 16 бит
Метод сжатия : С потерями
Задержка видео : 16 мс.
Размер потока : 122 Мбайт (11%)
Язык : Russian
Default : Да
Forced : Нет
pb.wtf



Скачать Грешный ангел через торрент http://picplus.ru/img/1904/01/54f0d58a.png Скачать фильм Грешный ангел через торрент бесплантно в хорошем качестве Описание:Четырнадцатилетняя Вера Телегина впервые увидела море, о котором мечтала с детства. Но здесь она оказалась случайно. Когда ее ... 10 10 1
Торрент: Зарегистрирован [2019-04-01 13:30] · скачан: 6 раз
Статус: √ проверено
Размер: 1.09 GB
Как cкачать? Как скачать Грешный ангел через торрент | qTorrent

% Раздел Тема Автор DL S | L
Кино СССР [ 1.09 GB ] Грешный ангел [1963 СССР SATRip от AVP Studio] AVP Studio Скачать
1 | 0
Сцены из фильмов и Сайтрипы с русскими актрисами [ 1.39 GB ] Лицо ангела и грешное тело / Angel Rivas in: Cara de angel y cuerpo de peca. [MeCorroentuCara / CumLouder] [2011 Tattoos Natural tits Russian Redhead. HD 720p.] Pir@tya2010 Скачать
1 | 0
    Дорогой пользователь! Огромная просьба, поблагодарите релизера, оцените раздачу и оставьте свои комментарий, если Вы скачали Грешный ангел через торрент бесплатно! Внесите свою лепту в развитие PiratBit!
    Комментировать посты могут только пользователи прошедшие не сложную регистрацию
    Показать сообщения:    

    Грешный ангел через торрент
    Скачать бесплатно Грешный ангел
    Грешный ангел скачать торрент
    Грешный ангел смотреть онлайн
    Cкачать фильм Грешный ангел бесплатно
    Грешный ангел скачать торрент в хорошем качестве
    Грешный ангел смотреть онлайн бесплатно в хорошем качестве


    Вы не можете начинать темы
    Вы не можете отвечать на сообщения
    Вы не можете редактировать свои сообщения
    Вы не можете удалять свои сообщения
    Вы не можете голосовать в опросах
    Вы не можете прикреплять файлы к сообщениям
    Вы можете скачивать файлы