Ссылка на приватное зеркало всего за 1$. Внимание количество ограничено!!!

OK

1+1

iTunes

мы

OK

1

WEB-DLRip

Джокер

Пифагор

Ведьмак / The Witcher сериал

Лицензия

ПШазам

ОК

Оно 2

iTunes

30
pack

Вам бонус

ВАЖНО

!!Акция!!

Alien_RageХит недели

RePack

Resident Evil 21

ИГРА 18+

pack

RePack

jed

!!Акция!!

Alien_Rage

RePack

fifa19

RePack

Assassins Creed: Odyssey

RePack

NEED FOR SPEED™ PAYBACK

4 сезон

9 сезон

Бесстыжие 9 сезон

Все сериалы

все сериалы на PB.wtf

RePack

FAR CRY 5
  

Мстители: Война бесконечности в 3D / Avengers: Infinity War in 3D (Энтони Руссо, Джо Руссо) [2018 г., фантастика, фэнтези, боевик, приключения, BDRip 1080p, Дубляж Лицензия] Анаглиф (Дюбуа) pb.wtf

Мстители: Война бесконечности в 3D через торрент pb.wtf

Размер: 8.68 GB | Добавлен: 9 мес. назад | Торрент скачан:46 раз
Скачать  

01-04-2019 15:32 Мстители: Война бесконечности в 3D Скачать торрент  

Мстители: Война бесконечности в 3D / Avengers: Infinity War in 3D
Год выпуска: 2018
Страна: США
Жанр: фантастика, фэнтези, боевик, приключения
Продолжительность: 02:29:20
Перевод: Дубляж Лицензия
Субтитры: Русские, украинские, английские

Режиссер: Энтони Руссо, Джо Руссо

Бюджет: $321 000 000
Премьера в мире: 23 апреля 2018 (3 мая 2018)

rating

В ролях: Роберт Дауни мл., Крис Хемсворт, Марк Руффало, Крис Эванс, Скарлетт Йоханссон, Дон Чидл, Бенедикт Камбербэтч, Том Холланд, Чэдвик Боузмэн, Зои Салдана, Карен Гиллан, Том Хиддлстон, Крис Пратт, Пол Беттани, Элизабет Олсен, Себастиан Стэн, Идрис Эльба, Дэйв Батиста, Гвинет Пэлтроу, Бенисио Дель Торо

Описание: Пока Мстители и их союзники продолжают защищать мир от различных опасностей, с которыми не смог бы справиться один супергерой, новая угроза возникает из космоса: Танос. Межгалактический тиран преследует цель собрать все шесть Камней Бесконечности — артефакты невероятной силы, с помощью которых можно менять реальность по своему желанию. Всё, с чем Мстители сталкивались ранее, вело к этому моменту — судьба Земли никогда ещё не была столь неопределённой

Доп. информация: Формат 3D: Анаглиф (Дюбуа)



Качество: BDRip 1080p
Формат: MKV
Видео кодек: H.264
Аудио кодек: AC3
Видео: x264, 1920 x 1080 (16:9), 6403 kbps, 23,976 fps, ( 0.129 bpp)
Аудио#1: Русский / AC3 / 48 KHz / 5.1 ch / 640 Kbps (Дубляж - BD Eur)
Аудио#2: Украинский / AC3 / 48 KHz / 5.1 ch / 640 Kbps (Дубляж) (спасибо Hurtom!)
Аудио#3: Английский / AC3 / 48 KHz / 5.1 ch / 640 Kbps (Original - BD 3D)


скриншот   скриншот   скриншот   скриншот   скриншот  
x264 [info]: profile High, level 4.1
x264 [info]: frame I:1939 Avg QP:11.32 size:171989 PSNR Mean Y:52.65 U:53.85 V:52.91 Avg:52.84 Global:52.28
x264 [info]: frame P:55669 Avg QP:14.82 size: 59975 PSNR Mean Y:50.15 U:51.14 V:50.18 Avg:50.22 Global:49.63
x264 [info]: frame B:157221 Avg QP:16.68 size: 22258 PSNR Mean Y:49.96 U:51.08 V:49.92 Avg:50.01 Global:49.21
x264 [info]: consecutive B-frames: 4.8% 5.1% 9.8% 25.1% 20.7% 34.4%


Общее
Уникальный идентификатор : 192966395185532632964565613139722581016 (0x912BF9D2EEC67E65B41CE92A4D053418)
Полное имя : E:\Avengers3(2018)3D(Anaglyph_Dubois).mkv
Формат : Matroska
Версия формата : Version 4
Размер файла : 8,68 Гбайт
Продолжительность : 2 ч. 29 м.
Общий поток : 8326 Кбит/сек
Название фильма : Мстители: Война бесконечности / Avengers: Infinity War (2018) in 3D (Anaglyph_Dubois)
Дата кодирования : UTC 2019-04-01 14:33:38
Программа кодирования : mkvmerge v12.0.0 ('Trust / Lust') 64bit
Библиотека кодирования : libebml v1.3.4 + libmatroska v1.4.5

Видео
Идентификатор : 1
Формат : AVC
Формат/Информация : Advanced Video Codec
Профиль формата : High@L4.1
MultiView_Count : 2
MultiView_Layout : Anaglyph (cyan/red)
Настройки формата : CABAC / 4 Ref Frames
Параметр CABAC формата : Да
Параметр RefFrames формата : 4 кадра
Идентификатор кодека : V_MPEG4/ISO/AVC
Продолжительность : 2 ч. 29 м.
Битрейт : 6403 Кбит/сек
Ширина : 1920 пикселей
Высота : 1080 пикселей
Соотношение сторон : 16:9
Режим частоты кадров : Постоянный
Частота кадров : 23,976 кадра/сек
Цветовое пространство : YUV
Субдискретизация насыщенности : 4:2:0
Битовая глубина : 8 бит
Тип развёртки : Прогрессивная
Бит/(Пиксели*Кадры) : 0.129
Размер потока : 6,68 Гбайт (77%)
Заголовок : slaventi-69 ( R.G. HD-Films ) 3Д (Anaglyph_Dubois)
Библиотека кодирования : x264 core 130 r2273 b3065e6
Настройки программы : cabac=1 / ref=4 / deblock=1:-1:-1 / analyse=0x3:0x113 / me=umh / subme=9 / psy=1 / psy_rd=1.00:0.00 / mixed_ref=1 / me_range=24 / chroma_me=1 / trellis=2 / 8x8dct=1 / cqm=0 / deadzone=21,11 / fast_pskip=1 / chroma_qp_offset=-2 / threads=10 / lookahead_threads=3 / sliced_threads=0 / nr=0 / decimate=1 / interlaced=0 / bluray_compat=0 / constrained_intra=0 / bframes=5 / b_pyramid=2 / b_adapt=2 / b_bias=0 / direct=2 / weightb=1 / open_gop=0 / weightp=2 / keyint=250 / keyint_min=23 / scenecut=40 / intra_refresh=0 / rc_lookahead=40 / rc=crf / mbtree=1 / crf=17.5 / qcomp=0.60 / qpmin=0 / qpmax=69 / qpstep=4 / ip_ratio=1.40 / aq=1:1.00
Язык : English
Default : Да
Forced : Нет

Аудио #1
Идентификатор : 2
Формат : AC-3
Формат/Информация : Audio Coding 3
Коммерческое название : Dolby Digital
Идентификатор кодека : A_AC3
Продолжительность : 2 ч. 29 м.
Вид битрейта : Постоянный
Битрейт : 640 Кбит/сек
Каналы : 6 каналов
Channel layout : L R C LFE Ls Rs
Частота : 48,0 КГц
Частота кадров : 31,250 кадров/сек (1536 SPF)
Битовая глубина : 16 бит
Метод сжатия : С потерями
Размер потока : 684 Мбайт (8%)
Заголовок : Дубляж (BD Eur)
Язык : Russian
ServiceKind/String : Complete Main
Default : Да
Forced : Нет

Аудио #2
Идентификатор : 3
Формат : AC-3
Формат/Информация : Audio Coding 3
Коммерческое название : Dolby Digital
Идентификатор кодека : A_AC3
Продолжительность : 2 ч. 29 м.
Вид битрейта : Постоянный
Битрейт : 640 Кбит/сек
Каналы : 6 каналов
Channel layout : L R C LFE Ls Rs
Частота : 48,0 КГц
Частота кадров : 31,250 кадров/сек (1536 SPF)
Битовая глубина : 16 бит
Метод сжатия : С потерями
Размер потока : 684 Мбайт (8%)
Заголовок : Дубляж (Hurtom)
Язык : Ukrainian
ServiceKind/String : Complete Main
Default : Нет
Forced : Нет

Аудио #3
Идентификатор : 4
Формат : AC-3
Формат/Информация : Audio Coding 3
Коммерческое название : Dolby Digital
Идентификатор кодека : A_AC3
Продолжительность : 2 ч. 29 м.
Вид битрейта : Постоянный
Битрейт : 640 Кбит/сек
Каналы : 6 каналов
Channel layout : L R C LFE Ls Rs
Частота : 48,0 КГц
Частота кадров : 31,250 кадров/сек (1536 SPF)
Битовая глубина : 16 бит
Метод сжатия : С потерями
Размер потока : 684 Мбайт (8%)
Заголовок : Original
Язык : English
ServiceKind/String : Complete Main
Default : Нет
Forced : Нет

Текст #1
Идентификатор : 5
Формат : UTF-8
Идентификатор кодека : S_TEXT/UTF8
Идентификатор кодека/Информация : UTF-8 Plain Text
Продолжительность : 2 ч. 17 м.
Битрейт : 0 бит/сек
ElementCount : 18
Размер потока : 554 байт (0%)
Заголовок : Форсированные (ver. Ash61)
Язык : Russian
Default : Да
Forced : Нет

Текст #2
Идентификатор : 6
Формат : UTF-8
Идентификатор кодека : S_TEXT/UTF8
Идентификатор кодека/Информация : UTF-8 Plain Text
Продолжительность : 2 ч. 28 м.
Битрейт : 64 бит/сек
ElementCount : 1598
Размер потока : 70,5 Кбайт (0%)
Заголовок : Полные
Язык : Russian
Default : Нет
Forced : Нет

Текст #3
Идентификатор : 7
Формат : UTF-8
Идентификатор кодека : S_TEXT/UTF8
Идентификатор кодека/Информация : UTF-8 Plain Text
Продолжительность : 2 ч. 28 м.
Битрейт : 76 бит/сек
ElementCount : 2088
Размер потока : 83,3 Кбайт (0%)
Заголовок : SDH
Язык : Russian
Default : Нет
Forced : Нет

Текст #4
Идентификатор : 8
Формат : UTF-8
Идентификатор кодека : S_TEXT/UTF8
Идентификатор кодека/Информация : UTF-8 Plain Text
Продолжительность : 2 ч. 17 м.
Битрейт : 0 бит/сек
ElementCount : 18
Размер потока : 552 байт (0%)
Заголовок : Форсированные (Hurtom+)
Язык : Ukrainian
Default : Нет
Forced : Нет

Текст #5
Идентификатор : 9
Формат : UTF-8
Идентификатор кодека : S_TEXT/UTF8
Идентификатор кодека/Информация : UTF-8 Plain Text
Продолжительность : 2 ч. 28 м.
Битрейт : 42 бит/сек
ElementCount : 1724
Размер потока : 46,1 Кбайт (0%)
Заголовок : Full
Язык : English
Default : Нет
Forced : Нет

Текст #6
Идентификатор : 10
Формат : UTF-8
Идентификатор кодека : S_TEXT/UTF8
Идентификатор кодека/Информация : UTF-8 Plain Text
Продолжительность : 2 ч. 28 м.
Битрейт : 49 бит/сек
ElementCount : 2067
Размер потока : 53,9 Кбайт (0%)
Заголовок : SDH
Язык : English
Default : Нет
Forced : Нет

Меню
00:00:00.000 : : 1. "Thanos is Coming"
00:11:28.729 : : 2. Infinity Stones
00:18:13.884 : : 3. Fight for the Time Stone
00:27:23.807 : : 4. "Who the Hell are You Guys?"
00:35:48.813 : : 5. Wanda and Vision
00:42:23.541 : : 6. Knowhere
00:54:12.873 : : 7. Avengers Assemble
00:59:36.739 : : 8. "Take the Fight to Him"
01:05:07.152 : : 9. The Soul Stone
01:10:53.666 : : 10. Nidavellir
01:17:06.954 : : 11. Titan
01:24:14.757 : : 12. Vormir
01:31:08.003 : : 13. "Wakanda Forever"
01:42:00.404 : : 14. Stormbreaker
01:45:57.809 : : 15. Titan Confrontation
01:53:04.068 : : 16. "A Vision Situation"
01:58:52.917 : : 17. The Time Stone
02:03:58.180 : : 18. The End Game
02:11:13.282 : : 19. Aftermath
02:17:31.283 : : 20. End Credits

pb.wtf



Скачать Мстители: Война бесконечности в 3D через торрент https://c.radikal.ru/c42/1808/2a/af1bd6fe8110.png Скачать фильм Мстители: Война бесконечности в 3D через торрент бесплантно в хорошем качестве Описание: Пока Мстители и их союзники продолжают защищать мир от различных опасностей, с которыми не смог бы справиться один супергерой, ... 10 10 2
Торрент: Зарегистрирован [2019-04-01 15:32] · скачан: 46 раз
Статус: √ проверено
Размер: 8.68 GB
Как cкачать? Как скачать Мстители: Война бесконечности в 3D через торрент | qTorrent

% Раздел Тема Автор DL S | L
3D Фильмы [ 16.61 GB ] Мстители: Война бесконечности в 3Д / Avengers: Infinity War 3D [2018 BDRip 1080p лицензия] OverUnder / Вертикальная стереопара serega768 Скачать
2 | 0

28-11-2019 20:33  

Отключить всю рекламу на сайте

    Дорогой пользователь! Огромная просьба, поблагодарите релизера, оцените раздачу и оставьте свои комментарий, если Вы скачали Мстители: Война бесконечности в 3D через торрент бесплатно! Внесите свою лепту в развитие PiratBit!
    Комментировать посты могут только пользователи прошедшие не сложную регистрацию
    Показать сообщения:    

    Мстители: Война бесконечности в 3D через торрент
    Скачать бесплатно Мстители: Война бесконечности в 3D
    Мстители: Война бесконечности в 3D скачать торрент
    Мстители: Война бесконечности в 3D смотреть онлайн
    Cкачать фильм Мстители: Война бесконечности в 3D бесплатно
    Мстители: Война бесконечности в 3D скачать торрент в хорошем качестве
    Мстители: Война бесконечности в 3D смотреть онлайн бесплатно в хорошем качестве


    Вы не можете начинать темы
    Вы не можете отвечать на сообщения
    Вы не можете редактировать свои сообщения
    Вы не можете удалять свои сообщения
    Вы не можете голосовать в опросах
    Вы не можете прикреплять файлы к сообщениям
    Вы можете скачивать файлы