Ссылка на приватное зеркало нашего сайта всего за 1$. Внимание количество ограничено!!!

2 сезон

iTunes

1 сезон

1

2 сезон

2 сезон

iTunes

1 сезон

RePack

30

Ultimate

ВАЖНО

ИГРА 18+

pack

RePack

MK11
pack

Забери бонус

RePack

jed

!!Акция!!

Alien_Rage

RePack

fifa19

RePack

Assassins Creed: Odyssey

RePack

NEED FOR SPEED™ PAYBACK

4 сезон

9 сезон

Бесстыжие 9 сезон

Все сериалы

все сериалы на PB.wtf

RePack

FAR CRY 5
  

Королевство / El reino / The Realm (Родриго Сорогойен) [2018, триллер, драма, BDRemux 1080p] [MVO] (HDrezka Studio) pb.wtf

Королевство через торрент pb.wtf

Размер: 14.58 GB | Добавлен: 1 год 7 мес. назад | Торрент скачан:13 раз
Скачать  

01-04-2019 15:36 Королевство Скачать торрент  

Королевство / El reino / The Realm

Год выпуска: 2018
Страна: Испания, Франция
Жанр: Триллер, драма
Продолжительность: 02:11:24
Перевод: Профессиональный (многоголосый закадровый) HDrezka Studio
Субтитры: Английские

Режиссер: Родриго Сорогойен / Rodrigo Sorogoyen

В ролях: Антонио де ла Торре, Моника Лопес, Хозе Мария Поу, Барбара Ленни, Начо Фреснеда, Ана Вахенер, Луис Саера, Франциско Рейс, Мария де Нати, Давид Лоренте

Описание: Коллеги по политической партии наслаждаются жизнью, роскошными яхтами и дорогими ресторанами. Их ежедневные занятия включают в себя отмывание денег, махинации с земельными участками, поездки в Мадрид и обмен услугами с местными бизнесменами. У влиятельного регионального вице-секретаря Мануэля есть все шансы стать следующим президентом автономного сообщества, переехать в Мадрид и попасть в национальную политику. Однако его идеальная жизнь рушится после утечки информации о нем и его лучшем друге Пако, что приводит к большому коррупционному скандалу...

скриншот  

Тип релиза: BDRemux 1080p
Контейнер: MKV

Видео: MPEG-4 AVC, 1080p, 1920:1080 (16:9), 14026 kbps, 23.976 fps
Аудио 1: АС3, 2 ch, 48 kHz, 192 kbps Русский MVO HDrezka
Аудио 2: Dolby TrueHD, 6 ch, 48 kHz, 1153 kbps Испанский
Аудио 3: AC3, 6 ch, 48 kHz, 448 kbps Испанский
Формат субтитров: SRT
General
Unique ID : 143702142816919962401885261018875571196 (0x6C1C06A76FA28537037227A893782BFC)
Complete name : G:\ФИЛЬМЫ\RuTRACKER\The.Realm.2018.REMUX.mkv
Format : Matroska
Format version : Version 4 / Version 2
File size : 14.6 GiB
Duration : 2 h 11 min
Overall bit rate mode : Variable
Overall bit rate : 15.9 Mb/s
Encoded date : UTC 2019-04-01 12:33:22
Writing application : mkvmerge v20.0.0 ('I Am The Sun') 64-bit
Writing library : libebml v1.3.5 + libmatroska v1.4.8

Video
ID : 1
Format : AVC
Format/Info : Advanced Video Codec
Format profile : High@L4.1
Format settings : CABAC / 3 Ref Frames
Format settings, CABAC : Yes
Format settings, RefFrames : 3 frames
Codec ID : V_MPEG4/ISO/AVC
Duration : 2 h 11 min
Bit rate mode : Variable
Bit rate : 14.0 Mb/s
Maximum bit rate : 25.0 Mb/s
Width : 1 920 pixels
Height : 1 080 pixels
Display aspect ratio : 16:9
Frame rate mode : Constant
Frame rate : 23.976 (24000/1001) FPS
Standard : NTSC
Color space : YUV
Chroma subsampling : 4:2:0
Bit depth : 8 bits
Scan type : Progressive
Bits/(Pixel*Frame) : 0.282
Stream size : 12.9 GiB (88%)
Language : English
Default : Yes
Forced : No
Color range : Limited
Color primaries : BT.709
Transfer characteristics : BT.709
Matrix coefficients : BT.709

Audio #1
ID : 2
Format : AC-3
Format/Info : Audio Coding 3
Codec ID : A_AC3
Duration : 2 h 11 min
Bit rate mode : Constant
Bit rate : 192 kb/s
Channel(s) : 2 channels
Channel positions : Front: L R
Sampling rate : 48.0 kHz
Frame rate : 31.250 FPS (1536 SPF)
Bit depth : 16 bits
Compression mode : Lossy
Stream size : 180 MiB (1%)
Title : MVO HDrezka
Language : Russian
Service kind : Complete Main
Default : Yes
Forced : No

Audio #2
ID : 3
Format : TrueHD
Codec ID : A_TRUEHD
Duration : 2 h 11 min
Bit rate mode : Variable
Bit rate : 1 153 kb/s
Maximum bit rate : 2 955 kb/s
Channel(s) : 6 channels
Channel positions : Front: L C R, Side: L R, LFE
Sampling rate : 48.0 kHz
Frame rate : 1 200.000 FPS (40 SPF)
Compression mode : Lossless
Stream size : 1.06 GiB (7%)
Language : Spanish
Default : No
Forced : No

Audio #3
ID : 4
Format : AC-3
Format/Info : Audio Coding 3
Codec ID : A_AC3
Duration : 2 h 11 min
Bit rate mode : Constant
Bit rate : 448 kb/s
Channel(s) : 6 channels
Channel positions : Front: L C R, Side: L R, LFE
Sampling rate : 48.0 kHz
Frame rate : 31.250 FPS (1536 SPF)
Bit depth : 16 bits
Compression mode : Lossy
Stream size : 421 MiB (3%)
Language : Spanish
Service kind : Complete Main
Default : No
Forced : No

Text
ID : 5
Format : UTF-8
Codec ID : S_TEXT/UTF8
Codec ID/Info : UTF-8 Plain Text
Duration : 2 h 6 min
Bit rate : 69 b/s
Count of elements : 1903
Stream size : 63.8 KiB (0%)
Language : English
Default : No
Forced : No

Menu
00:00:00.000 : en:Chapter 01
00:12:28.164 : en:Chapter 02
00:25:50.215 : en:Chapter 03
00:40:02.358 : en:Chapter 04
00:53:29.331 : en:Chapter 05
01:04:28.698 : en:Chapter 06
01:18:25.534 : en:Chapter 07
01:32:26.249 : en:Chapter 08
01:45:36.079 : en:Chapter 09
01:56:59.220 : en:Chapter 10
скриншот  скриншот  скриншот  
pb.wtf



Скачать Королевство через торрент https://i110.fastpic.ru/big/2019/0401/2a/dc1f49acd1f9bad44dde5e202a75a12a.jpg Скачать фильм Королевство через торрент бесплантно в хорошем качестве Описание: Коллеги по политической партии наслаждаются жизнью, роскошными яхтами и дорогими ресторанами. Их ежедневные занятия включают в ... 8.8 10 4
Торрент: Зарегистрирован [2019-04-03 07:05] · скачан: 13 раз
Статус: √ проверено
Размер: 14.58 GB
Как cкачать? Как скачать Королевство через торрент | qTorrent

% Раздел Тема Автор DL S | L
Фильмы 2018 [DVDrip, WEB-DLRip, HDrip] (DUB, MVO) [ 1.46 GB ] Королевство / El reino / The Realm [2018 BDRip] [MVO] killermax2013 Скачать
1 | 0

28-11-2019 20:33  

Отключить всю рекламу на сайте

    Дорогой пользователь! Огромная просьба, поблагодарите релизера, оцените раздачу и оставьте свои комментарий, если Вы скачали Королевство через торрент бесплатно! Внесите свою лепту в развитие PiratBit!
    Комментировать посты могут только пользователи прошедшие не сложную регистрацию
    Показать сообщения:    

    Королевство через торрент
    Скачать бесплатно Королевство
    Королевство скачать торрент
    Королевство смотреть онлайн
    Cкачать фильм Королевство бесплатно
    Королевство скачать торрент в хорошем качестве
    Королевство смотреть онлайн бесплатно в хорошем качестве


    Вы не можете начинать темы
    Вы не можете отвечать на сообщения
    Вы не можете редактировать свои сообщения
    Вы не можете удалять свои сообщения
    Вы не можете голосовать в опросах
    Вы не можете прикреплять файлы к сообщениям
    Вы можете скачивать файлы