2 сезон

iTunes

1 сезон

1

iTunes

iTunes

iTunes

1 сезон

RePack

30

ИГРА 18+

pack

ВАЖНО

!!Акция!!

Alien_RageХит недели

RePack

MK11
pack

Забери бонус

RePack

jed

!!Акция!!

Alien_Rage

RePack

fifa19

RePack

Assassins Creed: Odyssey

RePack

NEED FOR SPEED™ PAYBACK

4 сезон

9 сезон

Бесстыжие 9 сезон

Все сериалы

все сериалы на PB.wtf

RePack

FAR CRY 5
  

Вокально-криминальный ансамбль / Сезон: 1 / Серии: 1-16 из 16 (Степан Коршунов) [2019, Детектив, криминал, WEB-DL 1080p] pb.wtf

Вокально-криминальный ансамбль через торрент pb.wtf

Размер: 32.68 GB | Добавлен: 1 год 6 мес. назад | Торрент скачан:29 раз
Скачать  

01-04-2019 21:07 Вокально-криминальный ансамбль Скачать торрент  

Вокально-криминальный ансамбль
Год выпуска: 2019
Страна: Россия
Жанр: Детектив, криминал
Продолжительность: ~ 00:48:00 серия
Перевод: Не требуется
Субтитры: отсутствуют

Режиссер: Степан Коршунов



В ролях:

Никита Волков, Иван Добронравов, Евгений Харитонов, Артём Волобуев, Любовь Аксёнова, Екатерина Кузнецова, Анатолий Белый, Игорь Черневич, Петар Зекавица, Дмитрий Поднозов, Николай Козак, Дмитрий Муляр, Екатерина Кабак, Никита Люшненко, Евгения Бурдихина, Анатолий Голуб, Павел Южаков-Харланчук, Михаил Есьман, Андрей Душечкин, Святослав Астрамович, Максим Кречетов

Описание:

Действие сериала происходит в 70-х годах прошлого века. Музыкальный ансамбль сотрудников МВД под прикрытием расследует дело о незаконном вывозе исторических ценностей из страны. Главный подозреваемый — популярный певец Аркадий Золоторевский, который, по версии следствия, руководит преступной схемой.

Качество: WEB-DL 1080p
Формат: MKV

Видео: 1920х1080 (16:9), 25 fps, AVC MPEG-4 (x264), High@L4.0 ~ 6000 kbps avg, 0.152 bit/pixel
Аудио: AC3 Dolby Digital, 48.0 kHz, 2/0 (L,R) ch, 192 kbps
скриншот  скриншот  скриншот  скриншот  

General
Unique ID : 193092132444672733509412253673412856318 (0x914431264302BDAAB23D1A24631389FE)
Complete name : D:\Vokalno.Kriminalnyi.ansambl.2018.WEB-DL.(1080p).ExKinoRay\Vokalno.Kriminalnyi.ansambl.(01.seriya).2018.WEB-DL.(1080p).ExKinoRay.mkv
Format : Matroska
Format version : Version 4 / Version 2
File size : 1.98 GiB
Duration : 46 min 29 s
Overall bit rate mode : Constant
Overall bit rate : 6 106 kb/s
Encoded date : UTC 2019-04-01 18:02:47
Writing application : mkvmerge v7.8.0 ('River Man') 32bit built on Mar 27 2015 16:18:02
Writing library : libebml v1.3.1 + libmatroska v1.4.2

Video
ID : 1
Format : AVC
Format/Info : Advanced Video Codec
Format profile : High@L4.1
Format settings : 2 Ref Frames
Format settings, CABAC : No
Format settings, ReFrames : 2 frames
Codec ID : V_MPEG4/ISO/AVC
Duration : 46 min 29 s
Bit rate mode : Constant
Bit rate : 6 000 kb/s
Width : 1 920 pixels
Height : 1 080 pixels
Display aspect ratio : 16:9
Frame rate mode : Constant
Frame rate : 25.000 FPS
Standard : PAL
Color space : YUV
Chroma subsampling : 4:2:0
Bit depth : 8 bits
Scan type : Progressive
Bits/(Pixel*Frame) : 0.116
Stream size : 1.92 GiB (97%)
Default : Yes
Forced : No
Color range : Limited
Color primaries : BT.709
Transfer characteristics : BT.709
Matrix coefficients : BT.709

Audio
ID : 2
Format : AC-3
Format/Info : Audio Coding 3
Codec ID : A_AC3
Duration : 46 min 29 s
Bit rate mode : Constant
Bit rate : 192 kb/s
Channel(s) : 2 channels
Channel positions : Front: L R
Sampling rate : 48.0 kHz
Frame rate : 31.250 FPS (1536 SPF)
Bit depth : 16 bits
Compression mode : Lossy
Stream size : 63.8 MiB (3%)
Language : Russian
Service kind : Complete Main
Default : Yes
Forced : No

Внимание! Раздача ведётся путём добавления новых серий; при каждом добавлении создётся новый торрент. Чтобы начать докачку новой серии, пользователям необходимо сделать следующее:
(1) остановить скачивание,
(2) удалить старый торрент у себя из клиента (старые серии удалять не надо),
(3) скачать новый торрент и запустить его у себя в клиенте вместо старого, при этом указать клиенту путь в старую папку куда и должно происходить скачивание новых серий.

Ваш клиент при этом должен произвести хеширование (проверку) старой папки (если не производит сам - помогите ему сделать это), и будет докачивать только те серии которых у вас ещё нет. Старые серии при этом не удаляются, а продолжают раздаваться!
Eсли вы уже удалили старые серии, то предотвратить повторную закачку старых серий можно, отжав галочку в соответсвующих местах при запуске нового торрента.
pb.wtf



Скачать Вокально-криминальный ансамбль через торрент https://b.radikal.ru/b19/1904/e3/c55187c8e115.jpg Скачать фильм Вокально-криминальный ансамбль через торрент бесплантно в хорошем качестве Описание: Действие сериала происходит в 70-х годах прошлого века. Музыкальный ансамбль сотрудников МВД под прикрытием расследует дело о ... 10 10 5
Торрент: Зарегистрирован [2019-04-05 21:36] · скачан: 29 раз
Статус: √ проверено
Размер: 32.68 GB
Как cкачать? Как скачать Вокально-криминальный ансамбль через торрент | qTorrent

% Раздел Тема Автор DL S | L
Наши сериалы [ 9.37 GB ] Вокально-ьный ансамбль / Сезон: 1 / Серии: 1-16 из 16 [2019 SATRip] bober100 Скачать
1 | 0
Наши сериалы [ 19.79 GB ] Вокально-ьный ансамбль / Сезон: 1 / Серии: 1-16 из 16 [2019 музыка WEBRip 720p] oleg8 Скачать
1 | 0


Последний раз редактировалось: bober100 (2019-04-05 21:36), всего редактировалось 1 раз

28-11-2019 20:33  

Отключить всю рекламу на сайте

05-04-2019 06:50 Вокально-криминальный ансамбль Скачать торрент  



11я серия битая, 99,9% а дальше стоитpb.wtf



    Дорогой пользователь! Огромная просьба, поблагодарите релизера, оцените раздачу и оставьте свои комментарий, если Вы скачали Вокально-криминальный ансамбль через торрент бесплатно! Внесите свою лепту в развитие PiratBit!
    Комментировать посты могут только пользователи прошедшие не сложную регистрацию
    Показать сообщения:    

    Вокально-криминальный ансамбль через торрент
    Скачать бесплатно Вокально-криминальный ансамбль
    Вокально-криминальный ансамбль скачать торрент
    Вокально-криминальный ансамбль смотреть онлайн
    Cкачать фильм Вокально-криминальный ансамбль бесплатно
    Вокально-криминальный ансамбль скачать торрент в хорошем качестве
    Вокально-криминальный ансамбль смотреть онлайн бесплатно в хорошем качестве


    Вы не можете начинать темы
    Вы не можете отвечать на сообщения
    Вы не можете редактировать свои сообщения
    Вы не можете удалять свои сообщения
    Вы не можете голосовать в опросах
    Вы не можете прикреплять файлы к сообщениям
    Вы можете скачивать файлы