2 сезон

iTunes

1 сезон

1

iTunes

iTunes

iTunes

1 сезон

RePack

30

ИГРА 18+

pack

ВАЖНО

!!Акция!!

Alien_RageХит недели

RePack

MK11
pack

Забери бонус

RePack

jed

!!Акция!!

Alien_Rage

RePack

fifa19

RePack

Assassins Creed: Odyssey

RePack

NEED FOR SPEED™ PAYBACK

4 сезон

9 сезон

Бесстыжие 9 сезон

Все сериалы

все сериалы на PB.wtf

RePack

FAR CRY 5
  

На краю / Сезон: 1 / Серии: 1-8 из 8 (Евгений Лаврентьев) [2019, драма, мелодрама, WEB-DLRip] pb.wtf

На краю через торрент pb.wtf

Размер: 5.05 GB | Добавлен: 1 год 6 мес. назад | Торрент скачан:135 раз
Скачать  

01-04-2019 21:57 На краю Скачать торрент  

На краю Год выпуска: 2019
Страна: Россия
Жанр: драма, мелодрама
Продолжительность: ~ 00:51:00
Субтитры: отсутствуют

Режиссер: Евгений Лаврентьев



В ролях:

Диана Пожарская, Софья Шуткина, Феруза Рузиева, Кирилл Дыцевич, Наташа Швец (II), Николай Фоменко, Евгения Дмитриева, Владимир Верёвочкин, Юлия Ауг, Никита Тезин, Артём Шкляев, Бесо Гатаев, Дмитрий Муляр

Описание:

Студентка престижного столичного вуза Лена живёт в благополучной семье. Но её мир рушится, когда она узнаёт о предательстве любимого человека, с которым мечтала связать жизнь. Героиня попадает под колёса автомобиля и оказывается в больнице, где знакомится с Русланом. Вскоре после выписки Лену ждёт новое потрясение. Выясняется, что отец тоже неверен матери. Обожжённая двойным предательством, Лена всё больше привязывается к новому знакомому. Она ещё не знает, что Руслан - вербовщик, который ведёт страшную игру. Влюблённая Лена меняет веру, принимает ислам и отправляется на Родину любимого. Отец Лены в отчаянии бросается разыскивать дочь. Следы приводят его в Халифат...

Качество: WEB-DLRip
Формат: AVI

Видео: XviD, ~ 1560 Кбит/с, 720x304
Аудио: AC3, 2 ch, 192 Кбит/с
скриншот   скриншот   скриншот   скриншот   скриншот   скриншот   скриншот  
скриншот  

Общее
Полное имя : D:\На краю.2019 .WEB-DLRip. Files-x\O1. На краю.2019 .WEB-DLRip. Files-x.avi
Формат : AVI
Формат/Информация : Audio Video Interleave
Размер файла : 660 Мбайт
Продолжительность : 51 м. 11 с.
Общий поток : 1801 Кбит/сек
Программа кодирования : VirtualDubMod 1.5.10.3 | www.virtualdub-fr.org || (build 2550/release)
Библиотека кодирования : VirtualDubMod build 2550/release

Видео
Идентификатор : 0
Формат : MPEG-4 Visual
Профиль формата : Advanced Simple@L5
Параметр BVOP формата : 1
Параметр QPel формата : Нет
Параметр GMC формата : Без точки перехода
Параметр матрицы формата : Выборочная
Идентификатор кодека : XVID
Идентификатор кодека/Подсказка : XviD
Продолжительность : 51 м. 11 с.
Битрейт : 1599 Кбит/сек
Ширина : 720 пикселей
Высота : 304 пикселя
Соотношение сторон : 2,35:1
Частота кадров : 25,000 кадров/сек
Цветовое пространство : YUV
Субдискретизация насыщенности : 4:2:0
Битовая глубина : 8 бит
Тип развёртки : Прогрессивная
Метод сжатия : С потерями
Бит/(Пиксели*Кадры) : 0.292
Размер потока : 586 Мбайт (89%)
Библиотека кодирования : XviD 73

Аудио
Идентификатор : 1
Формат : AC-3
Формат/Информация : Audio Coding 3
Расширение режима : CM (complete main)
Параметр Endianness формата : Big
Идентификатор кодека : 2000
Продолжительность : 51 м. 11 с.
Вид битрейта : Постоянный
Битрейт : 192 Кбит/сек
Каналы : 2 канала
Расположение каналов : Front: L R
Частота : 48,0 КГц
Частота кадров : 31,250 кадров/сек (1536 spf)
Метод сжатия : С потерями
Размер потока : 70,3 Мбайт (11%)
Выравнивание : Разделение по промежуткам
Продолжительность промежутка : 40 мс. (1,00 видеокадр)
Время предзагрузки промежутка : 500 мс.

Внимание! Раздача ведётся путём добавления новых серий; при каждом добавлении создётся новый торрент. Чтобы начать докачку новой серии, пользователям необходимо сделать следующее:
(1) остановить скачивание,
(2) удалить старый торрент у себя из клиента (старые серии удалять не надо),
(3) скачать новый торрент и запустить его у себя в клиенте вместо старого, при этом указать клиенту путь в старую папку куда и должно происходить скачивание новых серий.

Ваш клиент при этом должен произвести хеширование (проверку) старой папки (если не производит сам - помогите ему сделать это), и будет докачивать только те серии которых у вас ещё нет. Старые серии при этом не удаляются, а продолжают раздаваться!
Eсли вы уже удалили старые серии, то предотвратить повторную закачку старых серий можно, отжав галочку в соответсвующих местах при запуске нового торрента.
pb.wtf



Скачать На краю через торрент https://a.radikal.ru/a43/1904/87/14e1c31724c1.jpg Скачать фильм На краю через торрент бесплантно в хорошем качестве Описание: Студентка престижного столичного вуза Лена живёт в благополучной семье. Но её мир рушится, когда она узнаёт о предательстве ... 10 10 7
Торрент: Зарегистрирован [2019-04-06 19:30] · скачан: 135 раз
Статус: √ проверено
Размер: 5.05 GB
Как cкачать? Как скачать На краю через торрент | qTorrent

% Раздел Тема Автор DL S | L
Наши сериалы [ 21.25 GB ] На краю / Сезон: 1 / Серии: 1-8 из 8 [2019 HDTV 1080i] bober100 Скачать
1 | 0
Наши сериалы [ 11.65 GB ] На краю / Сезон: 1 / Серии: 1-8 из 8 [2019 HDTVRip 720p] bober100 Скачать
1 | 0
Наши сериалы [ 5.03 GB ] На краю / Сезон: 1 / Серии: 1-8 из 8 [2019 WEB-DLRip-AVC] bober100 Скачать
1 | 0
Наши сериалы [ 4.69 GB ] На краю / Сезон: 1 / Серии: 1-8 из 8 [2019 SATRip] bober100 Скачать
1 | 0

28-11-2019 20:33  

Отключить всю рекламу на сайте

    Дорогой пользователь! Огромная просьба, поблагодарите релизера, оцените раздачу и оставьте свои комментарий, если Вы скачали На краю через торрент бесплатно! Внесите свою лепту в развитие PiratBit!
    Комментировать посты могут только пользователи прошедшие не сложную регистрацию
    Показать сообщения:    

    На краю через торрент
    Скачать бесплатно На краю
    На краю скачать торрент
    На краю смотреть онлайн
    Cкачать фильм На краю бесплатно
    На краю скачать торрент в хорошем качестве
    На краю смотреть онлайн бесплатно в хорошем качестве


    Вы не можете начинать темы
    Вы не можете отвечать на сообщения
    Вы не можете редактировать свои сообщения
    Вы не можете удалять свои сообщения
    Вы не можете голосовать в опросах
    Вы не можете прикреплять файлы к сообщениям
    Вы можете скачивать файлы