Ссылка на приватное зеркало всего за 1$. Внимание количество ограничено!!!

OK

1+1

iTunes

мы

OK

1

WEB-DLRip

Джокер

Пифагор

Ведьмак / The Witcher сериал

iTunes

ПШазам

ОК

Оно 2

iTunes

30
pack

Вам бонус

ВАЖНО

!!Акция!!

Alien_RageХит недели

RePack

Resident Evil 21

ИГРА 18+

pack

RePack

jed

RePack

fifa19

RePack

Assassins Creed: Odyssey

RePack

NEED FOR SPEED™ PAYBACK

4 сезон

9 сезон

Бесстыжие 9 сезон

Все сериалы

все сериалы на PB.wtf

RePack

FAR CRY 5
  

Красная комната / Red Room (Стивен Гаффни) [2017, Ужасы, триллер, WEB-DL 720p] MVO ["Синема УС"] pb.wtf

Красная комната через торрент pb.wtf

Размер: 3.83 GB | Добавлен: 9 мес. назад | Торрент скачан:46 раз
Скачать  

02-04-2019 04:59 Красная комната Скачать торрент  

Красная комната / Red RoomГод выпуска: 2017
Страна: Ирландия
Жанр: Ужасы, триллер
Продолжительность: 01:35:42
Перевод: Любительский (многоголосый) | "Синема УС"
Субтитры: отсутствуют

Режиссер: Стивен Гаффни

rating

В ролях:

Брайан Форчун, Фионна Хьюит-Туомли, Эдди Джексон, Кристина Райан, Родриго Терневой, Эйслинг О'Нилл, Роузин Уилан, Мартин О'Салливан, Сойирс Дойл, Эми Келли

Описание:

Киру похищают на улице и привозят в заброшенный дом на окраине Дублина. Здесь она оказывается в компании двух других узниц. Девушки предназначены для онлайн-аукциона миллионеров со всего мира, победивший в котором сможет выбрать каким именно садистским пыткам и как долго будет подвергаться понравившаяся ему жертва, перед тем, как от мучений её избавит смерть.

Качество: WEB-DL 720p
Формат: MKV

Видео: h.264,5 338 Кбит/с, 1280x544
Аудио#1: Русский, (AC3, 2 ch, 384 Кбит/с)
скриншот  скриншот  скриншот  

Общее
Уникальный идентификатор : 173446711681582486873054031671644162650 (0x827C9F1FC17FC8448471CAE448BC8A5A)
Полное имя : D:\Red Room.2017.P.WEB-DL.72Op.mkv
Формат : Matroska
Версия формата : Version 2
Размер файла : 3,83 Гбайт
Продолжительность : 1 ч. 35 м.
Режим общего битрейта : Переменный
Общий поток : 5724 Кбит/сек
Дата кодирования : UTC 2019-04-01 13:07:50
Программа кодирования : mkvmerge v8.3.0 ('Over the Horizon') 64bit
Библиотека кодирования : libebml v1.3.1 + libmatroska v1.4.2

Видео
Идентификатор : 1
Формат : AVC
Формат/Информация : Advanced Video Codec
Профиль формата : High@L4.1
Параметр CABAC формата : Да
Параметр RefFrames формата : 4 кадра
Идентификатор кодека : V_MPEG4/ISO/AVC
Продолжительность : 1 ч. 35 м.
Вид битрейта : Переменный
Битрейт : 5338 Кбит/сек
Максимальный битрейт : 6000 Кбит/сек
Ширина : 1280 пикселей
Высота : 544 пикселя
Соотношение сторон : 2,35:1
Режим частоты кадров : Постоянный
Частота кадров : 23,976 (24000/1001) кадра/сек
Стандарт вещания : Component
Цветовое пространство : YUV
Субдискретизация насыщенности : 4:2:0
Битовая глубина : 8 бит
Тип развёртки : Прогрессивная
Бит/(Пиксели*Кадры) : 0.313
Размер потока : 3,49 Гбайт (91%)
Default : Да
Forced : Нет
Цветовой диапазон : Limited
Основные цвета : BT.709
Характеристики трансфера : BT.709
Коэффициенты матрицы : BT.709

Аудио
Идентификатор : 2
Формат : AC-3
Формат/Информация : Audio Coding 3
Расширение режима : CM (complete main)
Параметр Endianness формата : Big
Идентификатор кодека : A_AC3
Продолжительность : 1 ч. 35 м.
Вид битрейта : Постоянный
Битрейт : 384 Кбит/сек
Каналы : 2 канала
Расположение каналов : Front: L R
Частота : 48,0 КГц
Частота кадров : 31,250 кадров/сек (1536 spf)
Метод сжатия : С потерями
Размер потока : 263 Мбайт (7%)
Default : Да
Forced : Нет

pb.wtf



Скачать Красная комната через торрент https://d.radikal.ru/d12/1904/74/62d17fd2037a.jpg Скачать фильм Красная комната через торрент бесплантно в хорошем качестве Описание: Киру похищают на улице и привозят в заброшенный дом на окраине Дублина. Здесь она оказывается в компании двух других узниц. ... 10 10 2
Торрент: Зарегистрирован [2019-04-02 04:59] · скачан: 46 раз
Статус: T временная
Размер: 3.83 GB
Как cкачать? Как скачать Красная комната через торрент | qTorrent

% Раздел Тема Автор DL S | L
T Фильмы (мультфильмы) cо спонсором показа (Новинки AVI/MKV) [ 700 MB ] Красная комната / Red Room [2017 WEB-DLRip] MVO ["Синема УС"] bober100 Скачать
1 | 0

28-11-2019 20:33  

Отключить всю рекламу на сайте

    Дорогой пользователь! Огромная просьба, поблагодарите релизера, оцените раздачу и оставьте свои комментарий, если Вы скачали Красная комната через торрент бесплатно! Внесите свою лепту в развитие PiratBit!
    Комментировать посты могут только пользователи прошедшие не сложную регистрацию
    Показать сообщения:    

    Красная комната через торрент
    Скачать бесплатно Красная комната
    Красная комната скачать торрент
    Красная комната смотреть онлайн
    Cкачать фильм Красная комната бесплатно
    Красная комната скачать торрент в хорошем качестве
    Красная комната смотреть онлайн бесплатно в хорошем качестве


    Вы не можете начинать темы
    Вы не можете отвечать на сообщения
    Вы не можете редактировать свои сообщения
    Вы не можете удалять свои сообщения
    Вы не можете голосовать в опросах
    Вы не можете прикреплять файлы к сообщениям
    Вы можете скачивать файлы