Ссылка на приватное зеркало всего за 1$. Внимание количество ограничено!!!

iTunes

iTunes

iTunes

1

iTunes

iTunes

iTunes

WEBRip

iTunes

30
pack

$ от Little Big

ВАЖНО

!!Акция!!

Alien_RageХит недели

RePack

Resident Evil 21

ИГРА 18+

pack

RePack

jed

!!Акция!!

Alien_Rage

RePack

fifa19

RePack

Assassins Creed: Odyssey

RePack

NEED FOR SPEED™ PAYBACK

4 сезон

9 сезон

Бесстыжие 9 сезон

Все сериалы

все сериалы на PB.wtf

RePack

FAR CRY 5
  

Межсезонье / Off Season (Роберт Коул) [2017, триллер, драма, WEB-DL 720p] MVO ["Синема УС"] pb.wtf

Межсезонье через торрент pb.wtf

Размер: 3.34 GB | Добавлен: 1 год 4 мес. назад | Торрент скачан:39 раз
Скачать  

02-04-2019 05:22 Межсезонье Скачать торрент  

Межсезонье / Off SeasonГод выпуска: 2017
Страна: США
Жанр: триллер, драма
Продолжительность: 01:25:59
Перевод: Любительский (многоголосый) | "Синема УС"
Субтитры: отсутствуют

Режиссер: Роберт Коул

rating

В ролях:

Джессика Кэдден Осборн, Чэнс Келли, Аманда Гуд Хеннесси, Браедин Кларк, Соси Бэйкон, Шон Клайар, Лукас Сальваньо, Мэллори Джун, Джесси Барр, Эми Нортап

Описание:

Молодая девушка без средств к существованию устраивается на работу на ферму и сближается с десятилетней дочерью владельцев, но вскоре обнаруживает, что дружелюбная рабочая атмосфера - всего лишь фасад, а приютившая ее семья, возможно, имеет в ее отношении недобрые намерения.

Качество: WEB-DL 720p
Формат: MKV

Видео: h.264,5 173 Кбит/с, 1280x720
Аудио#1: Русский, (AC3, 2 ch, 384 Кбит/с)
скриншот  скриншот  скриншот  

Общее
Уникальный идентификатор : 235458877541547742093412959031296629029 (0xB123BAF479D9CAD49C54FA5AAD4D9925)
Полное имя : D:\Off Season.2017.P.WEB-DL.72Op.mkv
Формат : Matroska
Версия формата : Version 2
Размер файла : 3,34 Гбайт
Продолжительность : 1 ч. 25 м.
Режим общего битрейта : Переменный
Общий поток : 5559 Кбит/сек
Дата кодирования : UTC 2019-04-01 13:03:50
Программа кодирования : mkvmerge v8.3.0 ('Over the Horizon') 64bit
Библиотека кодирования : libebml v1.3.1 + libmatroska v1.4.2

Видео
Идентификатор : 1
Формат : AVC
Формат/Информация : Advanced Video Codec
Профиль формата : High@L4.1
Параметр CABAC формата : Да
Параметр RefFrames формата : 4 кадра
Идентификатор кодека : V_MPEG4/ISO/AVC
Продолжительность : 1 ч. 25 м.
Вид битрейта : Переменный
Битрейт : 5173 Кбит/сек
Максимальный битрейт : 6000 Кбит/сек
Ширина : 1280 пикселей
Высота : 720 пикселей
Соотношение сторон : 16:9
Режим частоты кадров : Постоянный
Частота кадров : 23,976 (24000/1001) кадра/сек
Стандарт вещания : Component
Цветовое пространство : YUV
Субдискретизация насыщенности : 4:2:0
Битовая глубина : 8 бит
Тип развёртки : Прогрессивная
Бит/(Пиксели*Кадры) : 0.229
Размер потока : 3,04 Гбайт (91%)
Default : Да
Forced : Нет
Цветовой диапазон : Limited
Основные цвета : BT.709
Характеристики трансфера : BT.709
Коэффициенты матрицы : BT.709

Аудио
Идентификатор : 2
Формат : AC-3
Формат/Информация : Audio Coding 3
Расширение режима : CM (complete main)
Параметр Endianness формата : Big
Идентификатор кодека : A_AC3
Продолжительность : 1 ч. 25 м.
Вид битрейта : Постоянный
Битрейт : 384 Кбит/сек
Каналы : 2 канала
Расположение каналов : Front: L R
Частота : 48,0 КГц
Частота кадров : 31,250 кадров/сек (1536 spf)
Метод сжатия : С потерями
Размер потока : 236 Мбайт (7%)
Default : Да
Forced : Нет

pb.wtf



Скачать Межсезонье через торрент https://d.radikal.ru/d03/1904/a3/67fa7329eabc.jpg Скачать фильм Межсезонье через торрент бесплантно в хорошем качестве Описание: Молодая девушка без средств к существованию устраивается на работу на ферму и сближается с десятилетней дочерью владельцев, но ... 10 10 3
Торрент: Зарегистрирован [2019-04-02 05:22] · скачан: 39 раз
Статус: T временная
Размер: 3.34 GB
Как cкачать? Как скачать Межсезонье через торрент | qTorrent

% Раздел Тема Автор DL S | L
T Фильмы (мультфильмы) cо спонсором показа (Новинки AVI/MKV) [ 1.37 GB ] Межсезонье / Off Season [2017 WEB-DLRip] MVO ["Синема УС"] bober100 Скачать
1 | 0

28-11-2019 20:33  

Отключить всю рекламу на сайте

    Дорогой пользователь! Огромная просьба, поблагодарите релизера, оцените раздачу и оставьте свои комментарий, если Вы скачали Межсезонье через торрент бесплатно! Внесите свою лепту в развитие PiratBit!
    Комментировать посты могут только пользователи прошедшие не сложную регистрацию
    Показать сообщения:    

    Межсезонье через торрент
    Скачать бесплатно Межсезонье
    Межсезонье скачать торрент
    Межсезонье смотреть онлайн
    Cкачать фильм Межсезонье бесплатно
    Межсезонье скачать торрент в хорошем качестве
    Межсезонье смотреть онлайн бесплатно в хорошем качестве


    Вы не можете начинать темы
    Вы не можете отвечать на сообщения
    Вы не можете редактировать свои сообщения
    Вы не можете удалять свои сообщения
    Вы не можете голосовать в опросах
    Вы не можете прикреплять файлы к сообщениям
    Вы можете скачивать файлы