Ссылка на приватное зеркало нашего сайта всего за 1$. Внимание количество ограничено!!!

2 сезон

iTunes

1 сезон

1

2 сезон

2 сезон

iTunes

1 сезон

RePack

30

Ultimate

ВАЖНО

ИГРА 18+

pack

RePack

MK11
pack

Забери бонус

RePack

jed

!!Акция!!

Alien_Rage

RePack

fifa19

RePack

Assassins Creed: Odyssey

RePack

NEED FOR SPEED™ PAYBACK

4 сезон

9 сезон

Бесстыжие 9 сезон

Все сериалы

все сериалы на PB.wtf

RePack

FAR CRY 5
  

Я подарю тебе рассвет / Сезон: 1 / Серии: 1-4 из 4 (Валерий Ибрагимов) [2018 г., Остросюжетная мелодрама, HDTV 1080i] pb.wtf

Я подарю тебе рассвет через торрент pb.wtf

Размер: 11.02 GB | Добавлен: 1 год 8 мес. назад | Торрент скачан:15 раз
Скачать  

02-04-2019 05:42 Я подарю тебе рассвет Скачать торрент  

Я подарю тебе рассвет / Сезон: 1 / Серии: 1-4 из 4
Год выпуска: 2018
Страна: Россия,Украина
Жанр: Остросюжетная мелодрама
Продолжительность: 4 х~00:48:00
Субтитры: Отсутствуют

Режиссер: Валерий Ибрагимов

Перевод: Не требуется

В ролях: Алёна Коломина, Ксения Лукьянчикова, Кирилл Кузнецов, Алёна Хмельницкая, Анатолий Котенёв, Анна Ардова, Прохор Дубравин, Сергей Фролов (II), Наталия Васько, Татьяна Вашневская, Вероника Братусина

Описание: 21-летняя Карина – в день похорон родителей узнает, что они совсем не те, за кого себя выдавали. Они – преступники, похитившие ее в 4-летнем возрасте и воспитавшие, как собственную дочь. Карина возвращается в родную семью, где для нее все чужие, – к любящему отцу и тихо ненавидящей ее мачехе. Девушку ждут новые испытания. Она влюбляется в Егора – сына женщины, которая заказала ее похищение и довела родную мать Карины до самоубийства… Более того, главная героиня сталкивается с жестким соперничеством собственной сестры за сердце возлюбленного...

Качество: HDTV 1080i
Формат: MKV
Видео кодек: H.264
Аудио кодек: AC3
Видео: AVC, 1920x1080 (16:9), 7050 kbps, 25 fps, 0,136 bpp
Аудио#1: AC3 , 2.0, 48.0 kHz ,192 kbps .
скриншот   скриншот   скриншот   скриншот  

General
Unique ID : 245264203664261856512940526904161968446 (0xB8842ADB88CEA84384F932CB4C45A13E)
Complete name : E:\Запись с тв\Ya podaryu tebe rassvet 2018 HDTV 1080p.R.G.Generalfilm\Ya podaryu tebe rassvet.s01.e01.2018.HDTV 1080p.by.White Smoke.R.G.Generalfilm.mkv
Format : Matroska
Format version : Version 4 / Version 2
File size : 2.84 GiB
Duration : 56 min 10 s
Overall bit rate mode : Constant
Overall bit rate : 7 229 kb/s
Movie name : Ya podaryu tebe rassvet.s01.e01.2018.HDTV 1080p.by.White Smoke.R.G.Generalfilm.mkv
Encoded date : UTC 2019-04-01 13:27:59
Writing application : mkvmerge v6.8.0 ('Theme for Great Cities') 64bit built on Mar 2 2014 21:34:26
Writing library : libebml v1.3.0 + libmatroska v1.4.1
Cover : Yes
Attachments : cover.jpg

Video
ID : 1
Format : AVC
Format/Info : Advanced Video Codec
Format profile : High@L4.1
Format settings : CABAC / 3 Ref Frames
Format settings, CABAC : Yes
Format settings, ReFrames : 3 frames
Codec ID : V_MPEG4/ISO/AVC
Duration : 56 min 10 s
Bit rate mode : Constant
Bit rate : 7 051 kb/s
Width : 1 920 pixels
Height : 1 080 pixels
Display aspect ratio : 16:9
Frame rate mode : Constant
Frame rate : 25.000 FPS
Standard : PAL
Color space : YUV
Chroma subsampling : 4:2:0
Bit depth : 8 bits
Scan type : Progressive
Bits/(Pixel*Frame) : 0.136
Stream size : 2.70 GiB (95%)
Default : Yes
Forced : No
Color range : Limited
Color primaries : BT.709
Transfer characteristics : BT.709
Matrix coefficients : BT.709

Audio
ID : 2
Format : AC-3
Format/Info : Audio Coding 3
Commercial name : Dolby Digital
Codec ID : A_AC3
Duration : 56 min 10 s
Bit rate mode : Constant
Bit rate : 192 kb/s
Channel(s) : 2 channels
Channel layout : L R
Sampling rate : 48.0 kHz
Frame rate : 31.250 FPS (1536 SPF)
Bit depth : 16 bits
Compression mode : Lossy
Stream size : 77.1 MiB (3%)
Service kind : Complete Main
Default : Yes
Forced : No

pb.wtf



Скачать Я подарю тебе рассвет через торрент http://pic1.kartinco.top/images/12/bc1hj.jpg Скачать фильм Я подарю тебе рассвет через торрент бесплантно в хорошем качестве Описание: 21-летняя Карина – в день похорон родителей узнает, что они совсем не те, за кого себя выдавали. Они – преступники, похитившие ее ... 5 10 1
Торрент: Зарегистрирован [2019-04-02 05:42] · скачан: 15 раз
Статус: T временная
Размер: 11.02 GB
Как cкачать? Как скачать Я подарю тебе рассвет через торрент | qTorrent

28-11-2019 20:33  

Отключить всю рекламу на сайте

02-04-2019 05:48 Я подарю тебе рассвет Скачать торрент  

Топик был перенесен из форума Наши сериалы в форум Релизы по Парсеру [Игры, Сериалы и Фильмы и другое...]


bober100pb.wtf



    Дорогой пользователь! Огромная просьба, поблагодарите релизера, оцените раздачу и оставьте свои комментарий, если Вы скачали Я подарю тебе рассвет через торрент бесплатно! Внесите свою лепту в развитие PiratBit!
    Комментировать посты могут только пользователи прошедшие не сложную регистрацию
    Показать сообщения:    

    Я подарю тебе рассвет через торрент
    Скачать бесплатно Я подарю тебе рассвет
    Я подарю тебе рассвет скачать торрент
    Я подарю тебе рассвет смотреть онлайн
    Cкачать фильм Я подарю тебе рассвет бесплатно
    Я подарю тебе рассвет скачать торрент в хорошем качестве
    Я подарю тебе рассвет смотреть онлайн бесплатно в хорошем качестве


    Вы не можете начинать темы
    Вы не можете отвечать на сообщения
    Вы не можете редактировать свои сообщения
    Вы не можете удалять свои сообщения
    Вы не можете голосовать в опросах
    Вы не можете прикреплять файлы к сообщениям
    Вы можете скачивать файлы