новый адрес пиратбит piratbit
Мега распродажа FORZA HORIZON 4 ULTIMATE+ВСЕ DLC+ОНЛАЙН всего за 499р. 349 руб. (супер цена). Внимание количество ограничено!!!

iTunes

1+1

iTunes

мы

iTunes

1

iTunes

Чернобыль

iTunes

Ральф против интернета

Лицензия

ПШазам

Лицензия

Игра престолов

Лицензия

30
pack

ВАЖНО

!!Акция!!

Alien_RageХит недели

RePack

Resident Evil 21

ИГРА 18+

pack

RePack

Metro:Exodus

!!Акция!!

Alien_Rage

RePack

fifa19

RePack

Assassins Creed: Odyssey

RePack

NEED FOR SPEED™ PAYBACK

3 сезон

9 сезон

Бесстыжие 9 сезон

Все сериалы

все сериалы на PB.wtf

RePack

FAR CRY 5
Ребята, катастрофически не хватает 1900р. для оплаты серверов за Октябрь (всвязи с блокировками трафик упал в 3 раза), 1-2р., выручайте.
  

Два воскресенья (Владимир Шредель) [1963, СССР, драма, SATRip от AVP Studio] pb.wtf

Два воскресенья через торрент pb.wtf

Размер: 1.09 GB | Добавлен: 7 мес. назад | Торрент скачан:2 раза
Скачать  

02-04-2019 13:08 Два воскресенья Скачать торрент  

Два воскресенья
Страна: СССР
Производство: Ленфильм

Жанр: драма
Год выпуска: 1963
Продолжительность: 01:24:34

Перевод: Не требуется
Cубтитры: нет
Оригинальная аудиодорожка: русский

Режиссер: Владимир Шредель

В ролях:
Людмила Долгорукова, Владимир Корецкий, Людмила Макарова, Владимир Максимов (V), Татьяна Панкова, Валентина Пугачёва, Сергей Филиппов, Николай Волков (старший), Михаил Глузский, Марина Полбенцева, Борис Лёскин, Алексей Смирнов, Александр Соколов, Майя Блинова...
Об актёрах подробней

Описание:
Люська, служащая единственной сберкассы совсем молодого города Радиозаводска, выигрывает на лотерейный билет нейлоновую шубку. Сослуживцы советуют девушке получить деньги (нейлон в этом городе не греет) и купить какую-нибудь полезную штуку. Люська едет в областной город, получает деньги и улетает на выходные в Москву. В столице она знакомится с Володей, и молодые люди проводят вместе весь день, договорившись встретиться в следующие выходные. Однако Люся опоздала...

Исходник: DVB
Качество видео: SATRip
Формат видео: AVI

Видео: 688x512 (4:3), 25,000 кадров/сек, XviD ~ 1642 kbps avg, 0.186 bit/pixel
Аудио: 48 kHz, Dolby Digital AC3 2.0, 192 kbps

Раздача от:
Общее
Полное имя : Dva.voskresenya.1963.SATRip_[New-team]_by_AVP_Studio.avi
Формат : AVI
Формат/Информация : Audio Video Interleave
Размер файла : 1,09 Гбайт
Продолжительность : 1 ч. 24 м.
Общий поток : 1843 Кбит/сек
Программа кодирования : VirtualDubMod 1.5.10.3 | www.virtualdub-fr.org || (build 2550/release)
Библиотека кодирования : VirtualDubMod build 2550/release

Видео
Идентификатор : 0
Формат : MPEG-4 Visual
Профиль формата : Advanced Simple@L5
Настройки формата : BVOP1 / Custom Matrix
Параметр BVOP формата : 1
Параметр QPel формата : Нет
Параметр GMC формата : Без точки перехода
Параметр матрицы формата : Выборочная
Идентификатор кодека : XVID
Идентификатор кодека/Подсказка : XviD
Продолжительность : 1 ч. 24 м.
Битрейт : 1642 Кбит/сек
Ширина : 688 пикселей
Высота : 512 пикселей
Соотношение сторон : 4:3
Частота кадров : 25,000 кадров/сек
Цветовое пространство : YUV
Субдискретизация насыщенности : 4:2:0
Битовая глубина : 8 бит
Тип развёртки : Прогрессивная
Метод сжатия : С потерями
Бит/(Пиксели*Кадры) : 0.186
Размер потока : 993 Мбайт (89%)
Библиотека кодирования : XviD 73

Аудио
Идентификатор : 1
Формат : AC-3
Формат/Информация : Audio Coding 3
Коммерческое название : Dolby Digital
Идентификатор кодека : 2000
Продолжительность : 1 ч. 24 м.
Вид битрейта : Постоянный
Битрейт : 192 Кбит/сек
Каналы : 2 канала
Channel layout : L R
Частота : 48,0 КГц
Частота кадров : 31,250 кадров/сек (1536 SPF)
Битовая глубина : 16 бит
Метод сжатия : С потерями
Размер потока : 116 Мбайт (10%)
Выравнивание : Разделение по промежуткам
Продолжительность промежутка : 40 мс. (1,00 видеокадр)
Время предзагрузки промежутка : 500 мс
pb.wtf



Скачать Два воскресенья через торрент http://picplus.ru/img/1904/02/d9cdd7c7.png Скачать фильм Два воскресенья через торрент бесплантно в хорошем качестве Описание:Люська, служащая единственной сберкассы совсем молодого города Радиозаводска, выигрывает на лотерейный билет нейлоновую шубку. ... 5 10 1
Торрент: Зарегистрирован [2019-04-02 13:08] · скачан: 2 раз
Статус: √ проверено
Размер: 1.09 GB
Как cкачать? Как скачать Два воскресенья через торрент | qTorrent

% Раздел Тема Автор DL S | L
Кино СССР [ 1.09 GB ] Два воскресенья [1963 СССР SATRip-AVC от AVP Studio] AVP Studio Скачать
1 | 0
Классические порно фильмы [ 2.96 GB ] Роза и пчела + Два часа в воскресенье + Секс с соседями / 1970's Triple Climax [1970 Classic Feature. DVDRip] Pir@tya2010 Скачать
1 | 0


>> Регистрируемся здесь <<






Отзывы и комментарии о схеме читаем и пишем здесь: ---> Отзывы и комментарии о схеме

Новые благодарочки в телеграм довольных пользователей:
скриншот   скриншот   скриншот   скриншот   скриншот
    Дорогой пользователь! Огромная просьба, поблагодарите релизера, оцените раздачу и оставьте свои комментарий, если Вы скачали Два воскресенья через торрент бесплатно! Внесите свою лепту в развитие PiratBit!
    Комментировать посты могут только пользователи прошедшие не сложную регистрацию
    Показать сообщения:    

    Два воскресенья через торрент
    Скачать бесплатно Два воскресенья
    Два воскресенья скачать торрент
    Два воскресенья смотреть онлайн
    Cкачать фильм Два воскресенья бесплатно
    Два воскресенья скачать торрент в хорошем качестве
    Два воскресенья смотреть онлайн бесплатно в хорошем качестве


    Вы не можете начинать темы
    Вы не можете отвечать на сообщения
    Вы не можете редактировать свои сообщения
    Вы не можете удалять свои сообщения
    Вы не можете голосовать в опросах
    Вы не можете прикреплять файлы к сообщениям
    Вы можете скачивать файлы