новый адрес
Мега распродажа FORZA HORIZON 4 ULTIMATE+ВСЕ DLC+ОНЛАЙН всего за 499р. 349 руб. (супер цена). Внимание количество ограничено!!!

iTunes

1+1

iTunes

мы

iTunes

1

iTunes

Чернобыль

iTunes

Ральф против интернета

Лицензия

ПШазам

Лицензия

Игра престолов

Лицензия

30
pack

ВАЖНО

!!Акция!!

Alien_RageХит недели

RePack

Resident Evil 21

ИГРА 18+

pack

RePack

Metro:Exodus

!!Акция!!

Alien_Rage

RePack

fifa19

RePack

Assassins Creed: Odyssey

RePack

NEED FOR SPEED™ PAYBACK

3 сезон

9 сезон

Бесстыжие 9 сезон

Все сериалы

все сериалы на PB.wtf

RePack

FAR CRY 5
Ребята, катастрофически не хватает 1900р. для оплаты серверов за Октябрь (всвязи с блокировками трафик упал в 3 раза), 1-2р., выручайте.
  

Два воскресенья (Владимир Шредель) [1963, СССР, драма, SATRip-AVC от AVP Studio] pb.wtf

Два воскресенья через торрент pb.wtf

Размер: 1.09 GB | Добавлен: 7 мес. назад | Торрент скачан:9 раз
Скачать  

02-04-2019 13:08 Два воскресенья Скачать торрент  

Два воскресенья
Страна: СССР
Производство: Ленфильм

Жанр: драма
Год выпуска: 1963
Продолжительность: 01:24:34

Перевод: Не требуется
Cубтитры: нет
Оригинальная аудиодорожка: русский

Режиссер: Владимир Шредель

В ролях:
Людмила Долгорукова, Владимир Корецкий, Людмила Макарова, Владимир Максимов (V), Татьяна Панкова, Валентина Пугачёва, Сергей Филиппов, Николай Волков (старший), Михаил Глузский, Марина Полбенцева, Борис Лёскин, Алексей Смирнов, Александр Соколов, Майя Блинова...
Об актёрах подробней

Описание:
Люська, служащая единственной сберкассы совсем молодого города Радиозаводска, выигрывает на лотерейный билет нейлоновую шубку. Сослуживцы советуют девушке получить деньги (нейлон в этом городе не греет) и купить какую-нибудь полезную штуку. Люська едет в областной город, получает деньги и улетает на выходные в Москву. В столице она знакомится с Володей, и молодые люди проводят вместе весь день, договорившись встретиться в следующие выходные. Однако Люся опоздала...

Исходник: DVB
Качество видео: SATRip-AVC
Формат видео: MKV

Видео: 688->730x548 (4:3), 25,000 кадров/сек, H264 ~ 1649 kbps avg, 0.175 bit/pixel
Аудио: 48 kHz, Dolby Digital AC3 2.0, 192 kbps

Раздача от:
Общее
Полное имя : Dva.voskresenya.1963.SATRip-AVC_[New-team]_by_AVP_Studio.mkv
Формат : Matroska
Версия формата : Version 2
Размер файла : 1,09 Гбайт
Продолжительность : 1 ч. 24 м.
Общий поток : 1842 Кбит/сек
Дата кодирования : UTC 2019-04-01 18:42:05
Программа кодирования : mkvmerge v6.1.0 ('Old Devil') built on Mar 4 2013 09:10:42
Библиотека кодирования : libebml v1.3.0 + libmatroska v1.4.0

Видео
Идентификатор : 1
Формат : AVC
Формат/Информация : Advanced Video Codec
Профиль формата : High@L4.1
Настройки формата : CABAC / 10 Ref Frames
Параметр CABAC формата : Да
Параметр RefFrames формата : 10 кадров
Идентификатор кодека : V_MPEG4/ISO/AVC
Продолжительность : 1 ч. 24 м.
Битрейт : 1649 Кбит/сек
Ширина : 688 пикселей
Высота : 548 пикселей
Соотношение сторон : 4:3
Режим частоты кадров : Постоянный
Частота кадров : 25,000 кадров/сек
Цветовое пространство : YUV
Субдискретизация насыщенности : 4:2:0
Битовая глубина : 8 бит
Тип развёртки : Прогрессивная
Бит/(Пиксели*Кадры) : 0.175
Размер потока : 976 Мбайт (88%)
Библиотека кодирования : x264 core 157 r2935 545de2f
Настройки программы : cabac=1 / ref=10 / deblock=1:-2:-1 / analyse=0x3:0x113 / me=umh / subme=10 / psy=1 / psy_rd=1.00:0.00 / mixed_ref=1 / me_range=32 / chroma_me=1 / trellis=2 / 8x8dct=1 / cqm=0 / deadzone=21,11 / fast_pskip=1 / chroma_qp_offset=-2 / threads=6 / lookahead_threads=1 / sliced_threads=0 / nr=0 / decimate=0 / interlaced=0 / bluray_compat=0 / constrained_intra=0 / bframes=8 / b_pyramid=2 / b_adapt=2 / b_bias=0 / direct=3 / weightb=1 / open_gop=0 / weightp=2 / keyint=250 / keyint_min=25 / scenecut=40 / intra_refresh=0 / rc=2pass / mbtree=0 / bitrate=1649 / ratetol=1.0 / qcomp=0.60 / qpmin=0 / qpmax=69 / qpstep=4 / cplxblur=20.0 / qblur=0.5 / ip_ratio=1.40 / pb_ratio=1.30 / aq=1:1.00
Default : Да
Forced : Нет

Аудио
Идентификатор : 2
Формат : AC-3
Формат/Информация : Audio Coding 3
Коммерческое название : Dolby Digital
Идентификатор кодека : A_AC3
Продолжительность : 1 ч. 24 м.
Вид битрейта : Постоянный
Битрейт : 192 Кбит/сек
Каналы : 2 канала
Channel layout : L R
Частота : 48,0 КГц
Частота кадров : 31,250 кадров/сек (1536 SPF)
Битовая глубина : 16 бит
Метод сжатия : С потерями
Размер потока : 116 Мбайт (10%)
Default : Да
Forced : Нет
pb.wtf



Скачать Два воскресенья через торрент http://picplus.ru/img/1904/02/d9cdd7c7.png Скачать фильм Два воскресенья через торрент бесплантно в хорошем качестве Описание:Люська, служащая единственной сберкассы совсем молодого города Радиозаводска, выигрывает на лотерейный билет нейлоновую шубку. ... 5 10 1
Торрент: Зарегистрирован [2019-04-02 13:08] · скачан: 9 раз
Статус: √ проверено
Размер: 1.09 GB
Как cкачать? Как скачать Два воскресенья через торрент | qTorrent

% Раздел Тема Автор DL S | L
Кино СССР [ 1.09 GB ] Два воскресенья [1963 СССР SATRip от AVP Studio] AVP Studio Скачать
1 | 0
Классические порно фильмы [ 2.96 GB ] Роза и пчела + Два часа в воскресенье + Секс с соседями / 1970's Triple Climax [1970 Classic Feature. DVDRip] Pir@tya2010 Скачать
1 | 0


>> Регистрируемся здесь <<






Отзывы и комментарии о схеме читаем и пишем здесь: ---> Отзывы и комментарии о схеме

Новые благодарочки в телеграм довольных пользователей:
скриншот   скриншот   скриншот   скриншот   скриншот
    Дорогой пользователь! Огромная просьба, поблагодарите релизера, оцените раздачу и оставьте свои комментарий, если Вы скачали Два воскресенья через торрент бесплатно! Внесите свою лепту в развитие PiratBit!
    Комментировать посты могут только пользователи прошедшие не сложную регистрацию
    Показать сообщения:    

    Два воскресенья через торрент
    Скачать бесплатно Два воскресенья
    Два воскресенья скачать торрент
    Два воскресенья смотреть онлайн
    Cкачать фильм Два воскресенья бесплатно
    Два воскресенья скачать торрент в хорошем качестве
    Два воскресенья смотреть онлайн бесплатно в хорошем качестве


    Вы не можете начинать темы
    Вы не можете отвечать на сообщения
    Вы не можете редактировать свои сообщения
    Вы не можете удалять свои сообщения
    Вы не можете голосовать в опросах
    Вы не можете прикреплять файлы к сообщениям
    Вы можете скачивать файлы