Ссылка на приватное зеркало нашего сайта всего за 1$. Внимание количество ограничено!!!

2 сезон

iTunes

1 сезон

1

2 сезон

2 сезон

iTunes

1 сезон

RePack

30

Ultimate

ВАЖНО

ИГРА 18+

pack

RePack

MK11
pack

Забери бонус

RePack

jed

!!Акция!!

Alien_Rage

RePack

fifa19

RePack

Assassins Creed: Odyssey

RePack

NEED FOR SPEED™ PAYBACK

4 сезон

9 сезон

Бесстыжие 9 сезон

Все сериалы

все сериалы на PB.wtf

RePack

FAR CRY 5
  

Падение Ордена / Knightfall / Сезон: 2 / Серии: 1-8 из 8 (Дуглас Маккиннон) [2017, боевик, драма, приключения, WEB-DL 720p] [MVO] (AlexFilm) pb.wtf

Падение Ордена через торрент pb.wtf

Размер: 7.09 GB | Добавлен: 1 год 6 мес. назад | Торрент скачан:110 раз

Как вам данный сериал ?

 1. Отлично (10)

 2. Смотрибельно, твердая 3 из 5 (6)

 3. На эту тему есть намного лучше фильмы/сериалы (2)

 4. Свой вариант пишем в комментариях (1)

Всего проголосовало : 19

Скачать  

02-04-2019 15:14 Падение Ордена Скачать торрент  

Падение Ордена | Knightfall
«***»

Производство: США
Год выпуска: 2019
Жанр: боевик, драма, приключения
Продолжительность: ~ 00:45:00 серия

Перевод: Профессиональный (многоголосый закадровый) | AlexFilm

Режиссер: Дуглас Маккиннон, Дэвид Петрарка, Метин Хусейн
В ролях: Том Каллен, Падрейк Делани, Саймон Мерреллс, Оливия Росс, Джулиан Овенден, Эд Стоппард, Сабрина Бартлетт, Бобби Шофилд, Сара-Софи Бусснина, Нассер Мемарзиа
Описание фильма:
Действие сериала разворачивается вокруг самой драгоценной и загадочной реликвии христианства — Святого Грааля, бесследно утерянного в результате падения города Акры, последнего оплота тамплиеров. Существование Ордена теперь под угрозой и зависит от того, будет ли найден Кубок Христа. На поиски Грааля отправляется предводитель тамплиеров — храбрый воин сэр Лэндри, чтобы помешать уничтожению Ордена.
rating

Качество видео: WEB-DL 720p
Формат: MKV
Видео: AVC, 1280 x 640 (2.000), 23.976 fps, ~2500 kbps
Аудио Rus: AC-3, 48 kHz, 2 ch, 192 kbps |AlexFilm|
Аудио Eng: AC-3, 48 kHz, 2 ch, 192 kbps |Original|
Субтитры: Отсутствуют
Реклама: Отсутствует

Перевод: Наталья Зимина
Монтаж и сведение звука: Михаил Шорыгин
Роли озвучивали:

• Евгения Тихонова
• Владимир Курдов
• Константин Федосеев
• Дмитрий Лунёв
• Кирилл Патрино
• Михаил Суслов

Общее
Уникальный идентификатор : 246894827723663854068806050427591901651 (0xB9BE36D4ADFA8196A1BC25DCEEFAC1D3)
Полное имя : E:\_Сериалы\_Сериалы\Падение Ордена\Knightfall - Season 2 (AlexFilm) WEB-DL 720p\Knightfall.s02e01.WEB-DL.720p.Rus.Eng.AlexFilm.mkv
Формат : Matroska
Версия формата : Version 4
Размер файла : 936 Мбайт
Продолжительность : 45 м. 20 с.
Общий поток : 2885 Кбит/сек
Название фильма : Knightfall 2x01 @ AlexFilm
Дата кодирования : UTC 2019-03-26 18:11:03
Программа кодирования : mkvmerge v7.9.0 ('Birds') 64bit
Библиотека кодирования : libebml v1.3.1 + libmatroska v1.4.2

Видео
Идентификатор : 1
Формат : AVC
Формат/Информация : Advanced Video Codec
Профиль формата : High@L4.1
Настройки формата : CABAC / 4 Ref Frames
Параметр CABAC формата : Да
Параметр RefFrames формата : 4 кадра
Идентификатор кодека : V_MPEG4/ISO/AVC
Продолжительность : 45 м. 20 с.
Битрейт : 2500 Кбит/сек
Ширина : 1280 пикселей
Высота : 640 пикселей
Соотношение сторон : 2,000
Режим частоты кадров : Постоянный
Частота кадров : 23,976 (24000/1001) кадра/сек
Цветовое пространство : YUV
Субдискретизация насыщенности : 4:2:0
Битовая глубина : 8 бит
Тип развёртки : Прогрессивная
Бит/(Пиксели*Кадры) : 0.127
Размер потока : 810 Мбайт (87%)
Библиотека кодирования : x264 core 130 r2273 b3065e6
Настройки программы : cabac=1 / ref=3 / deblock=1:0:0 / analyse=0x3:0x113 / me=hex / subme=7 / psy=1 / psy_rd=1.00:0.00 / mixed_ref=1 / me_range=16 / chroma_me=1 / trellis=1 / 8x8dct=1 / cqm=0 / deadzone=21,11 / fast_pskip=1 / chroma_qp_offset=-2 / threads=6 / lookahead_threads=1 / sliced_threads=0 / nr=0 / decimate=1 / interlaced=0 / bluray_compat=0 / constrained_intra=0 / bframes=3 / b_pyramid=2 / b_adapt=1 / b_bias=0 / direct=1 / weightb=1 / open_gop=0 / weightp=2 / keyint=250 / keyint_min=23 / scenecut=40 / intra_refresh=0 / rc_lookahead=40 / rc=2pass / mbtree=1 / bitrate=2500 / ratetol=1.0 / qcomp=0.60 / qpmin=0 / qpmax=69 / qpstep=4 / cplxblur=20.0 / qblur=0.5 / ip_ratio=1.40 / aq=1:1.00
Default : Да
Forced : Нет

Аудио #1
Идентификатор : 2
Формат : AC-3
Формат/Информация : Audio Coding 3
Коммерческое название : Dolby Digital
Идентификатор кодека : A_AC3
Продолжительность : 45 м. 20 с.
Вид битрейта : Постоянный
Битрейт : 192 Кбит/сек
Каналы : 2 канала
Channel layout : L R
Частота : 48,0 КГц
Частота кадров : 31,250 кадров/сек (1536 SPF)
Битовая глубина : 16 бит
Метод сжатия : С потерями
Размер потока : 62,3 Мбайт (7%)
Заголовок : DD2.0 AlexFilm
Язык : Russian
ServiceKind/String : Complete Main
Default : Да
Forced : Нет

Аудио #2
Идентификатор : 3
Формат : AC-3
Формат/Информация : Audio Coding 3
Коммерческое название : Dolby Digital
Идентификатор кодека : A_AC3
Продолжительность : 45 м. 20 с.
Вид битрейта : Постоянный
Битрейт : 192 Кбит/сек
Каналы : 2 канала
Channel layout : L R
Частота : 48,0 КГц
Частота кадров : 31,250 кадров/сек (1536 SPF)
Битовая глубина : 16 бит
Метод сжатия : С потерями
Размер потока : 62,3 Мбайт (7%)
Заголовок : DD2.0 Original
Язык : English
ServiceKind/String : Complete Main
Default : Нет
Forced : Нет

скриншот  скриншот  скриншот  

Раздача ведётся путём добавления новых серий; при каждом добавлении создаётся новый торрент.
Чтобы начать докачку новой серии, пользователям необходимо сделать следующее:
1. остановить скачивание,
2. удалить старый торрент у себя из клиента (старые серии удалять не надо),
3. скачать новый торрент и запустить его у себя в клиенте вместо старого, при этом указать клиенту путь в старую папку, куда и должно происходить скачивание новых серий.

Ваш клиент при этом должен произвести хеширование (проверку) старой папки (если не производит сам - помогите ему сделать это), и будет докачивать только те серии которых у вас ещё нет. Старые серии при этом не удаляются, а продолжают раздаваться!

Eсли вы уже удалили старые серии, то предотвратить повторную закачку старых серий можно, отжав галочку в соответствующих местах при запуске нового торрента. По возможности, желательно не удалять старые серии как можно дольше, чтобы релизёр не столько продолжал раздавать старые серии, а смог сконцентрироваться на новых.

Совет для тех, кто не хочет ждать перехеширования:
Создайте ещё одну папку рядом с папкой сериала (рядом, а не в ней!!!). Каждую новую серию после удачной загрузки копируйте в новую папку так чтобы ваша основная папка всегда была пуста. Когда ваш новый торрент предложит вам закачать все файлы, выберете только последнюю. Для сидирования же укажите адрес новой папки.

Как закачать отдельный файл из торрента или докачать ранее пропущенные файлы торрента!

1. Открыть торрент
2. Снять галки с тех файлов торрента, которые мы не хотим закачивать. Оставляем только на нужных нам файлах (файле).
3. Нажать О.К.

В клиенте utorrent

Инструкция

1) Открыть торрент


2) Снять галки с тех файлов торрента, которые мы не хотим закачивать:

* либо вручную, снимая с каждого файла галку( скрин №1)
* либо, нажав кнопку "Снять метки (Select None)", сняв сразу со всех файлов(скрин №2)
№1

№2

Оставляем только на нужных нам файлах (файле).

3)Нажать О.К

Приятного просмотра!!!pb.wtf



Скачать Падение Ордена через торрент https://i2.imageban.ru/out/2019/03/26/48ad8144bcb4f983e489bcba14dc92c0.png Скачать фильм Падение Ордена через торрент бесплантно в хорошем качестве Описание фильма:Действие сериала разворачивается вокруг самой драгоценной и загадочной реликвии христианства — Святого Грааля, бесследно ... 9.6 10 15
Торрент: Зарегистрирован [2019-05-14 09:28] · скачан: 110 раз
Статус: √ проверено
Размер: 7.09 GB
Как cкачать? Как скачать Падение Ордена через торрент | qTorrent

% Раздел Тема Автор DL S | L
Зарубежные сериалы [ 19.31 GB ] Падение Ордена / Knightfall / Сезон: 2 / Серии: 1-8 из 8 [2019 исторический WEB-DL 1080p] 2x[MVO] killermax2013 Скачать
1 | 0
Зарубежные сериалы [ 3.43 GB ] Падение Ордена / Knightfall / Сезон: 2 / Серии: 1-8 из 8 [2019 приключени WEBRip] MVO [LostFilm] bober100 Скачать
2 | 0
Зарубежные сериалы [ 8.24 GB ] Падение Ордена / Knightfall / Сезон: 2 / Серии: 1-8 из 8 [2019 военный WEB-DL 720p] MVO [Jaskier] bober100 Скачать
1 | 0
Зарубежные сериалы [ 4.29 GB ] Падение Ордена / Knightfall / Сезон: 2 / Серии: 1-8 из 8 [2019 WEB-DLRip] MVO [Jaskier] bober100 Скачать
3 | 0
Зарубежные сериалы [ 4.96 GB ] Падение Ордена / Knightfall / Сезон: 2 / Серии: 1-8 из 8 [2019 . WEB-DLRip] [MVO] killermax2013 Скачать
1 | 0

28-11-2019 20:33  

Отключить всю рекламу на сайте

    Дорогой пользователь! Огромная просьба, поблагодарите релизера, оцените раздачу и оставьте свои комментарий, если Вы скачали Падение Ордена через торрент бесплатно! Внесите свою лепту в развитие PiratBit!
    Комментировать посты могут только пользователи прошедшие не сложную регистрацию
    Показать сообщения:    

    Падение Ордена через торрент
    Скачать бесплатно Падение Ордена
    Падение Ордена скачать торрент
    Падение Ордена смотреть онлайн
    Cкачать фильм Падение Ордена бесплатно
    Падение Ордена скачать торрент в хорошем качестве
    Падение Ордена смотреть онлайн бесплатно в хорошем качестве


    Вы не можете начинать темы
    Вы не можете отвечать на сообщения
    Вы не можете редактировать свои сообщения
    Вы не можете удалять свои сообщения
    Вы не можете голосовать в опросах
    Вы не можете прикреплять файлы к сообщениям
    Вы можете скачивать файлы