Ссылка на приватное зеркало нашего сайта всего за 1$. Внимание количество ограничено!!!

2 сезон

iTunes

1 сезон

1

iTunes

iTunes

iTunes

1 сезон

RePack

30

ИГРА 18+

pack

ВАЖНО

!!Акция!!

Alien_RageХит недели

RePack

MK11
pack

Забери бонус

RePack

jed

!!Акция!!

Alien_Rage

RePack

fifa19

RePack

Assassins Creed: Odyssey

RePack

NEED FOR SPEED™ PAYBACK

4 сезон

9 сезон

Бесстыжие 9 сезон

Все сериалы

все сериалы на PB.wtf

RePack

FAR CRY 5
  

Проверка на прочность / Перевірка на міцність / Серии: 1-4 из 4 (Сергей Терещук) [2019, детектив, боевик, WEB-DL 1080p] pb.wtf

Проверка на прочность через торрент pb.wtf

Размер: 8.06 GB | Добавлен: 1 год 6 мес. назад | Торрент скачан:18 раз
Скачать  

03-04-2019 02:00 Проверка на прочность Скачать торрент  

Проверка на прочность / Перевірка на міцність Год выпуска: 2019
Страна: Украина
Жанр: детектив, боевик
Продолжительность: ~00:47:00 серия
Перевод: Не требуется
Субтитры: нет

Режиссёр: Сергей Терещук

В ролях:

Вахтанг Беридзе, Дмитрий Сарансков, Алексей Агеев , Юлия Вайшнур, Илья Денискин, Евгений Бондарский, Борис Георгиевский, Дарья Калиниченко, Виктория Литвиненко, Сергей Малюта, Александр Соколенко, Дмитрий Суржиков, Павел Текучев

Описание:

Команда Вадима Суворова занимается проверкой служб безопасности. Делают они это весьма оригинальным методом, например, сами грабят банк. Потом награбленное, конечно, возвращают и показывают ограбленным и удивлённым «клиентам», где слабые места в охране. Всем членам команды поступает предложение от таинственного «незнакомца». Вадим подозревает что-то неладное, но его коллеги Толстяк и Красавчик, обольстившись тройным гонораром и лёгкостью дела, убеждают командира согласиться. Они ловко грабят инкассаторскую машину. Их поблагодарили, заплатили, забрали «награбленное». Но, как оказалось, что это была «подстава». Теперь им предстоит предпринять меры, чтобы найти и поймать настоящих бандитов. Искать преступников им надо, постоянно спасаясь от идущей по их следам полиции.

Реклама: Нет.

Sample

Качество: WEB-DL 1080p
Формат: MKV

Видео: 1920х1080 (16:9), 25 fps, AVC MPEG-4 (x264), High@L4.0 ~ 6000 kbps avg, 0.152 bit/pixel
Аудио: 48.0 kHz, AC3 Dolby Digital, 2/0 (L,R) ch, ~ 192 kbps
скриншот  скриншот  скриншот  скриншот  

Общее
Уникальный идентификатор : 243534999269066568933893602545422333983 (0xB737227F9F4FA1AD97AA07FDDEBC781F)
Полное имя : D:\Proverka.na.prochnost.2018.WEB-DL.(1080p).ExKinoRay\Proverka.na.prochnost.(01.seriya.iz.04).2018.WEB-DL.(1080p).ExKinoRay.mkv
Формат : Matroska
Версия формата : Version 4 / Version 2
Размер файла : 2,02 Гбайт
Продолжительность : 46 м. 55 с.
Режим общего битрейта : Постоянный
Общий поток : 6164 Кбит/сек
Дата кодирования : UTC 2019-03-29 18:01:38
Программа кодирования : mkvmerge v7.8.0 ('River Man') 32bit built on Mar 27 2015 16:18:02
Библиотека кодирования : libebml v1.3.1 + libmatroska v1.4.2

Видео
Идентификатор : 1
Формат : AVC
Формат/Информация : Advanced Video Codec
Профиль формата : High@L4.1
Параметр CABAC формата : Нет
Параметр RefFrames формата : 2 кадра
Идентификатор кодека : V_MPEG4/ISO/AVC
Продолжительность : 46 м. 55 с.
Вид битрейта : Постоянный
Битрейт : 6000 Кбит/сек
Ширина : 1920 пикселей
Высота : 1080 пикселей
Соотношение сторон : 16:9
Режим частоты кадров : Постоянный
Частота кадров : 25,000 кадров/сек
Стандарт вещания : PAL
Цветовое пространство : YUV
Субдискретизация насыщенности : 4:2:0
Битовая глубина : 8 бит
Тип развёртки : Прогрессивная
Бит/(Пиксели*Кадры) : 0.116
Размер потока : 1,92 Гбайт (95%)
Default : Да
Forced : Нет
Цветовой диапазон : Limited
Основные цвета : BT.709
Характеристики трансфера : BT.709
Коэффициенты матрицы : BT.709

Аудио
Идентификатор : 2
Формат : AC-3
Формат/Информация : Audio Coding 3
Расширение режима : CM (complete main)
Параметр Endianness формата : Big
Идентификатор кодека : A_AC3
Продолжительность : 46 м. 55 с.
Вид битрейта : Постоянный
Битрейт : 192 Кбит/сек
Каналы : 2 канала
Расположение каналов : Front: L R
Частота : 48,0 КГц
Частота кадров : 31,250 кадров/сек (1536 spf)
Метод сжатия : С потерями
Размер потока : 64,4 Мбайт (3%)
Язык : Russian
Default : Да
Forced : Нет

pb.wtf



Скачать Проверка на прочность через торрент https://i110.fastpic.ru/big/2019/0329/0e/5454f584b99a8779d6048b489c1c970e.jpg Скачать фильм Проверка на прочность через торрент бесплантно в хорошем качестве Описание: Команда Вадима Суворова занимается проверкой служб безопасности. Делают они это весьма оригинальным методом, например, сами ... 5.8 10 4
Торрент: Зарегистрирован [2019-04-03 02:00] · скачан: 18 раз
Статус: √ проверено
Размер: 8.06 GB
Как cкачать? Как скачать Проверка на прочность через торрент | qTorrent

% Раздел Тема Автор DL S | L
Наши сериалы [ 4.84 GB ] Проверка на прочность / Перевірка на міцність / Серии: 1-4 из 4 [2019 WEBRip 720p] bober100 Скачать
1 | 0
Наши сериалы [ 2.36 GB ] Проверка на прочность / Перевірка на міцність / Серии: 1-4 из 4 [2019 WEB-DLRip] bober100 Скачать
1 | 0

28-11-2019 20:33  

Отключить всю рекламу на сайте

    Дорогой пользователь! Огромная просьба, поблагодарите релизера, оцените раздачу и оставьте свои комментарий, если Вы скачали Проверка на прочность через торрент бесплатно! Внесите свою лепту в развитие PiratBit!
    Комментировать посты могут только пользователи прошедшие не сложную регистрацию
    Показать сообщения:    

    Проверка на прочность через торрент
    Скачать бесплатно Проверка на прочность
    Проверка на прочность скачать торрент
    Проверка на прочность смотреть онлайн
    Cкачать фильм Проверка на прочность бесплатно
    Проверка на прочность скачать торрент в хорошем качестве
    Проверка на прочность смотреть онлайн бесплатно в хорошем качестве


    Вы не можете начинать темы
    Вы не можете отвечать на сообщения
    Вы не можете редактировать свои сообщения
    Вы не можете удалять свои сообщения
    Вы не можете голосовать в опросах
    Вы не можете прикреплять файлы к сообщениям
    Вы можете скачивать файлы