Ссылка на приватное зеркало всего за 1$. Внимание количество ограничено!!!

OK

1+1

iTunes

мы

OK

1

WEB-DLRip

Джокер

Пифагор

Ведьмак / The Witcher сериал

Лицензия

ПШазам

ОК

Оно 2

iTunes

30
pack

Вам бонус

ВАЖНО

!!Акция!!

Alien_RageХит недели

RePack

Resident Evil 21

ИГРА 18+

pack

RePack

jed

!!Акция!!

Alien_Rage

RePack

fifa19

RePack

Assassins Creed: Odyssey

RePack

NEED FOR SPEED™ PAYBACK

4 сезон

9 сезон

Бесстыжие 9 сезон

Все сериалы

все сериалы на PB.wtf

RePack

FAR CRY 5
  

Смертельный квест / No Escape Room (Алекс Меркин) [2018, Ужасы, WEB-DL 1080p] MVO [HDRezka Studio] - ExKinoRay pb.wtf

Смертельный квест через торрент pb.wtf

Размер: 3.36 GB | Добавлен: 9 мес. назад | Торрент скачан:201 раз
Скачать  

03-04-2019 04:12 Смертельный квест Скачать торрент  

Название: Смертельный квест
Оригинальное название: No Escape Room
Год выпуска: 2018
Жанр: Ужасы
Режиссер: Алекс Меркин
В ролях: Дженни Росс, Марк Ганиме, Кэтрин Дэвис, Хамза Хак, Дэннис Андрес, Брианна Барнс, Кейт Хармэн, Саманта Амори, Джад Сайкали

Описание: Из-за небольшой задержки на дороге отец вместе со своей дочерью оказываются в маленьком городке и решают посетить местный живой квест по поиску выхода из комнаты, но обнаруживают, что с этим зловещим местом явно что-то не так. Для них это больше не развлечение: из интересной командной игры квест превращается в опасную встречу с паранормальным, и теперь семья и остальные участники команды должны спасти свои жизни от разъяренного духа: каждая решенная загадка приближает их спасение, тогда как стрелки часов приближают их возможную смерть.



Выпущено: США, MarVista Entertainment
Продолжительность: 01:25:07
Перевод: Профессиональный (многоголосый, закадровый) | HDRezka Studio
Субтитры: Английские

БЕЗ КАКОЙ-ЛИБО РЕКЛАМЫ!

Формат: MKV
Качество: WEB-DL 1080p
Видео: MPEG-4 AVC, 1920x1080 (16:9), 23.976 fps, 5077 Kbps, 0.102 bit/pixel
Аудио 1: 48 kHz, AC3, 2.0, 192 Kbps | MVO | RUS |
Аудио 2: 48 kHz, AC3, 5.1, 384 Kbps | Оригинал | ENG |
General
Unique ID : 186225938034577291870299616229867825663 (0x8C19CFA0DB7FD1A788351F3DC4EEA9FF)
Complete name : F:\ishodniki2018\hdrezka\No.Escape.Room.2018.MVO.1080p.WEB-DL.ExKinoRay.mkv
Format : Matroska
Format version : Version 4 / Version 2
File size : 3.36 GiB
Duration : 1 h 25 min
Overall bit rate : 5 655 kb/s
Movie name : No Escape Room 2018 from ExKinoRay
Encoded date : UTC 2019-04-03 02:47:25
Writing application : mkvmerge v7.6.0 ('Garden of Dreams') 32bit built on Feb 11 2015 00:18:47
Writing library : libebml v1.3.1 + libmatroska v1.4.2
Cover : Yes
Attachments : cover_land.jpg / small_cover.jpg / small_cover_land.jpg / cover.jpg

Video
ID : 1
Format : AVC
Format/Info : Advanced Video Codec
Format profile : High@L4
Format settings, CABAC : Yes
Format settings, ReFrames : 4 frames
Codec ID : V_MPEG4/ISO/AVC
Duration : 1 h 25 min
Bit rate : 5 077 kb/s
Width : 1 920 pixels
Height : 1 080 pixels
Display aspect ratio : 16:9
Frame rate mode : Constant
Frame rate : 23.976 (24000/1001) FPS
Color space : YUV
Chroma subsampling : 4:2:0
Bit depth : 8 bits
Scan type : Progressive
Bits/(Pixel*Frame) : 0.102
Stream size : 3.02 GiB (90%)
Title : No.Escape.Room.2018.1080p
Language : English
Default : Yes
Forced : No
Color range : Limited
Color primaries : BT.709
Transfer characteristics : BT.709
Matrix coefficients : BT.709

Audio #1
ID : 2
Format : AC-3
Format/Info : Audio Coding 3
Mode extension : CM (complete main)
Format settings, Endianness : Big
Codec ID : A_AC3
Duration : 1 h 25 min
Bit rate mode : Constant
Bit rate : 192 kb/s
Channel(s) : 2 channels
Channel positions : Front: L R
Sampling rate : 48.0 kHz
Frame rate : 31.250 FPS (1536 spf)
Compression mode : Lossy
Delay relative to video : -42 ms
Stream size : 117 MiB (3%)
Title : MVO (HDRezka Studio)
Language : Russian
Default : No
Forced : No

Audio #2
ID : 3
Format : AC-3
Format/Info : Audio Coding 3
Mode extension : CM (complete main)
Format settings, Endianness : Big
Codec ID : A_AC3
Duration : 1 h 25 min
Bit rate mode : Constant
Bit rate : 384 kb/s
Channel(s) : 6 channels
Channel positions : Front: L C R, Side: L R, LFE
Sampling rate : 48.0 kHz
Frame rate : 31.250 FPS (1536 spf)
Compression mode : Lossy
Delay relative to video : -42 ms
Stream size : 234 MiB (7%)
Language : English
Default : No
Forced : No

Text
ID : 4
Format : UTF-8
Codec ID : S_TEXT/UTF8
Codec ID/Info : UTF-8 Plain Text
Duration : 1 h 24 min
Bit rate : 44 b/s
Count of elements : 1017
Stream size : 27.6 KiB (0%)
Language : English
Default : No
Forced : No
Релиз от:

Автор релиза: pb.wtf



Скачать Смертельный квест через торрент https://c.radikal.ru/c10/1904/a1/3b80db40576e.jpg Скачать фильм Смертельный квест через торрент бесплантно в хорошем качестве Описание: Из-за небольшой задержки на дороге отец вместе со своей дочерью оказываются в маленьком городке и решают посетить местный живой ... 10 10 2
Info! Золотая раздача, скачанное не засчитывается.
Торрент: Зарегистрирован [2019-04-03 04:12] · скачан: 201 раз
Статус: T временная
Размер: 3.36 GB
Как cкачать? Как скачать Смертельный квест через торрент | qTorrent

% Раздел Тема Автор DL S | L
T Фильмы 2018 [DVDrip, WEB-DLRip, HDrip] (DUB, MVO) [ 1.46 GB ] Смертельный квест / No Escape Room [2018 WEB-DLRip] MVO [HDRezka] - ExKinoRay Enigma2010 Скачать
4 | 0

28-11-2019 20:33  

Отключить всю рекламу на сайте

    Дорогой пользователь! Огромная просьба, поблагодарите релизера, оцените раздачу и оставьте свои комментарий, если Вы скачали Смертельный квест через торрент бесплатно! Внесите свою лепту в развитие PiratBit!
    Комментировать посты могут только пользователи прошедшие не сложную регистрацию
    Показать сообщения:    

    Смертельный квест через торрент
    Скачать бесплатно Смертельный квест
    Смертельный квест скачать торрент
    Смертельный квест смотреть онлайн
    Cкачать фильм Смертельный квест бесплатно
    Смертельный квест скачать торрент в хорошем качестве
    Смертельный квест смотреть онлайн бесплатно в хорошем качестве


    Вы не можете начинать темы
    Вы не можете отвечать на сообщения
    Вы не можете редактировать свои сообщения
    Вы не можете удалять свои сообщения
    Вы не можете голосовать в опросах
    Вы не можете прикреплять файлы к сообщениям
    Вы можете скачивать файлы