Ссылка на приватное зеркало нашего сайта всего за 1$. Внимание количество ограничено!!!

2 сезон

iTunes

1 сезон

1

2 сезон

2 сезон

iTunes

1 сезон

RePack

30

Новинка

ВАЖНО

ИГРА 18+

pack

RePack

MK11
pack

Забери бонус

RePack

jed

!!Акция!!

Alien_Rage

RePack

fifa19

RePack

Assassins Creed: Odyssey

RePack

NEED FOR SPEED™ PAYBACK

4 сезон

9 сезон

Бесстыжие 9 сезон

Все сериалы

все сериалы на PB.wtf

RePack

FAR CRY 5
  

Хэппи / Happy! / Сезон 2 / Серия 1-10 из 10 (Брайан Тейлор, Дэвид Петрарка) [2019, фэнтези, триллер, комедия, криминал, детектив, WEB-DL 720p] [DVO] (Кубик в Кубе) pb.wtf

Хэппи через торрент pb.wtf

Размер: 17 GB | Добавлен: 1 год 5 мес. назад | Торрент скачан:144 раза
Скачать  

03-04-2019 06:27 Хэппи Скачать торрент  

Хэппи / Happy!
Год выхода: 2019
Жанр: фэнтези, триллер, комедия, криминал, детектив
Страна: США
Продолжительность: ~ 00:50:00
Перевод: Профессиональный (двухголосый закадровый) *Кубик в Кубе*
Субтитры: English

Режиссер: Брайан Тейлор, Дэвид Петрарка

В ролях: Кристофер Мелони, Рен Колли, Александр Джеймисон, Кэтти Бет Холл, Кэтрин ЛеФрер, Бенджамин Снайдер и др.

О фильме:

Ник Сакс, вечно пьяный бывший полицейский, становится наёмным убийцей. Он плывёт по течению в мире случайных смертей, секса и предательства. Когда одно из его дел идёт наперекосяк, нетрезвая жизнь Сакса навсегда меняется с появлением крошечного, вечно положительного, воображаемого голубого крылатого коня.

rating

Качество: WEB-DL 720p
Кодек: MKV
Видео: 1280x720 at 23.976 fps, MPEG-4 AVC, ~ 4000 Kbps
Звук 1: 48 kHz, AC3 Dolby Digital, 6 ch, ~640 kbps - DVO
Звук 2: 48 kHz, AC3 Dolby Digital, 6 ch, ~640 kbps - ENG

Релиз -- CasStudio
Работа со звуком: Messafan
скриншот  скриншот  скриншот  
General
Unique ID : 221266816894142498133669732873141370248 (0xA6767057871B6772BE1B192276323D88)
Complete name : E:\Happy.S02.720p.WEB.CasStudio.TV\Happy.S02E01.The.War.on.Easter.720p.WEBDL.Kvk.CasStudio.TV.mkv
Format : Matroska
Format version : Version 4 / Version 2
File size : 1.77 GiB
Duration : 48 min 27 s
Overall bit rate : 5 229 kb/s
Movie name : Happy! 02x01 (The War on Easter) - release by messafan for CasStudio.TV
Encoded date : UTC 2019-04-02 20:32:01
Writing application : mkvmerge v6.7.0 ('Back to the Ground') 64bit built on Jan 8 2014 15:10:52
Writing library : libebml v1.3.0 + libmatroska v1.4.1

Video
ID : 1
Format : AVC
Format/Info : Advanced Video Codec
Format profile : High@L3.1
Format settings : CABAC / 4 Ref Frames
Format settings, CABAC : Yes
Format settings, RefFrames : 4 frames
Codec ID : V_MPEG4/ISO/AVC
Duration : 48 min 27 s
Bit rate mode : Constant
Bit rate : 3 845 kb/s
Nominal bit rate : 6 000 kb/s
Width : 1 280 pixels
Height : 720 pixels
Display aspect ratio : 16:9
Frame rate mode : Constant
Frame rate : 23.976 (24000/1001) FPS
Color space : YUV
Chroma subsampling : 4:2:0
Bit depth : 8 bits
Scan type : Progressive
Bits/(Pixel*Frame) : 0.174
Stream size : 1.30 GiB (74%)
Default : Yes
Forced : No
Color range : Limited
Color primaries : BT.709
Transfer characteristics : BT.709
Matrix coefficients : BT.709

Audio #1
ID : 2
Format : AC-3
Format/Info : Audio Coding 3
Format settings, Endianness : Big
Codec ID : A_AC3
Duration : 48 min 27 s
Bit rate mode : Constant
Bit rate : 640 kb/s
Channel(s) : 6 channels
Channel positions : Front: L C R, Side: L R, LFE
Sampling rate : 48.0 kHz
Frame rate : 31.250 FPS (1536 SPF)
Bit depth : 16 bits
Compression mode : Lossy
Stream size : 222 MiB (12%)
Title : KvK DD5.1 @ 640kbps
Language : Russian
Service kind : Complete Main
Default : Yes
Forced : No

Audio #2
ID : 3
Format : AC-3
Format/Info : Audio Coding 3
Format settings, Endianness : Big
Codec ID : A_AC3
Duration : 48 min 27 s
Bit rate mode : Constant
Bit rate : 640 kb/s
Channel(s) : 6 channels
Channel positions : Front: L C R, Side: L R, LFE
Sampling rate : 48.0 kHz
Frame rate : 31.250 FPS (1536 SPF)
Bit depth : 16 bits
Compression mode : Lossy
Stream size : 222 MiB (12%)
Title : English DD5.1 @ 640kbps
Language : English
Service kind : Complete Main
Default : No
Forced : No

Text
ID : 4
Format : UTF-8
Codec ID : S_TEXT/UTF8
Codec ID/Info : UTF-8 Plain Text
Title : SDH
Language : English
Default : No
Forced : No
Внимание! Раздача ведётся путём добавления новых серий; при каждом добавлении создаётся новый торрент. Чтобы начать докачку новой серии, пользователям необходимо сделать следующее:

Остановить скачивание.

Удалить старый торрент у себя из клиента (старые серии удалять не надо).

Скачать новый торрент и запустить его у себя в клиенте вместо старого, при этом указать клиенту путь в старую папку куда и должно происходить скачивание новых серий.

Ваш клиент при этом должен произвести хеширование (проверку) старой папки (если не производит сам - помогите ему сделать это), и будет докачивать только те серии которых у вас ещё нет. Старые серии при этом не удаляются, а продолжают раздаваться!

Eсли вы уже удалили старые серии, то предотвратить повторную закачку старых серий можно, отжав галочку в соответсвующих местах при запуске нового торрента. По возможности, желательно не удалять старые серии как можно дольше чтобы релизёр не столько продолжал раздавать старые серии, а смог сконцентрироваться на новых.
pb.wtf



Скачать Хэппи через торрент https://i109.fastpic.ru/big/2019/0403/b4/e22f7c5a8d0878f4a271461655db2db4.png Скачать фильм Хэппи через торрент бесплантно в хорошем качестве О фильме:Ник Сакс, вечно пьяный бывший полицейский, становится наёмным убийцей. Он плывёт по течению в мире случайных смертей, секса и ... 10 10 11
Торрент: Зарегистрирован [2019-06-07 18:44] · скачан: 144 раз
Статус: √ проверено
Размер: 17 GB
Как cкачать? Как скачать Хэппи через торрент | qTorrent

% Раздел Тема Автор DL S | L
Зарубежные сериалы [ 18.58 GB ] Хэппи / Happy! / Сезон: 2 / Серии: 1-10 из 10 [2019 BDRip-HEVC 1080p] Кубик в Кубе RealOldGamer Скачать
2 | 0
Зарубежные сериалы [ 30.13 GB ] Хэппи / Happy! / Сезон: 2 / Серии: 1-10 из 10 [2019 WEB-DL 1080p] DVO [Кубик в Кубе] bober100 Скачать
1 | 0
Зарубежные сериалы [ 29.34 GB ] Хэппи / Happy! / Сезон: 2 / Серии: 1-10 из 10 [2019 WEB-DL 1080p] MVO [TVShows] bober100 Скачать
2 | 0
Зарубежные сериалы [ 18.99 GB ] Хэппи / Happy / Сезон: 2 / Серии: 1-10 из 10 [2019 WEB-DL 720p] + [MVO] killermax2013 Скачать
1 | 0
Зарубежные сериалы [ 4.29 GB ] Хэппи / Happy! / Сезон 2 / Серия 1-9 из 10 [2019 WEBRip-AVC] [MVO] killermax2013 Скачать
1 | 0
Зарубежные сериалы [ 5.57 GB ] Хэппи! / Happy! / Сезон: 2 / Серии: 1-10 из 10 [2019 WEB-DLRip] MVO [Good People] bober100 Скачать
1 | 0
Зарубежные сериалы [ 1.68 GB ] Хэппи / Happy! / Сезон: 2 / Серии: 1 из 10 [2019 WEB-DL 720p] MVO [NewStudio] bober100 Скачать
1 | 0

28-11-2019 20:33  

Отключить всю рекламу на сайте

    Дорогой пользователь! Огромная просьба, поблагодарите релизера, оцените раздачу и оставьте свои комментарий, если Вы скачали Хэппи через торрент бесплатно! Внесите свою лепту в развитие PiratBit!
    Комментировать посты могут только пользователи прошедшие не сложную регистрацию
    Показать сообщения:    

    Хэппи через торрент
    Скачать бесплатно Хэппи
    Хэппи скачать торрент
    Хэппи смотреть онлайн
    Cкачать фильм Хэппи бесплатно
    Хэппи скачать торрент в хорошем качестве
    Хэппи смотреть онлайн бесплатно в хорошем качестве


    Вы не можете начинать темы
    Вы не можете отвечать на сообщения
    Вы не можете редактировать свои сообщения
    Вы не можете удалять свои сообщения
    Вы не можете голосовать в опросах
    Вы не можете прикреплять файлы к сообщениям
    Вы можете скачивать файлы