Всегда рабочее зеркало просто перед .vidak.icu напиши любое слово или цифру, Пример http://t42.vidak.icu

>

7.4

iTunes

7.4

2 сезон

9.4

1 сезон

1

7.4

2 сезон

7.2

iTunes

6.0

MVO

13

6.1

iTunes

8.3

Пиратка

30

ULTIMATE

pack

9.9

Лицензия

ВАЖНО

ИГРА 18+

pack

7.3

RePack

MK11

7.7

RePack

jed

7.8

RePack

fifa19

8.5

RePack

RDR2

RePack

NEED FOR SPEED™ PAYBACK

1 сезон

9 сезон

Бесстыжие 9 сезон

Все сериалы

все сериалы на PB.wtf

RePack

FAR CRY 5

Anonymous, доброй ночи, мы катастрофически не успеваем собрать деньги на оплату серверов, помогите нам пожалуйста 5,10,15р., для нас важна любая помощь . В качестве благодарности мы отключим Вам всю рекламу на сайте (укажите свой ник в строку Ваше имя)!

×
  
Magnet ссылка

Смерть - моё ремесло / Aus einem deutschen Leben (Теодор Котулла) [1977, драма, биография, BDRip 1080p by msltel] AVO pb.wtf

Смерть - моё ремесло через торрент pb.wtf

Размер: 16.19 GB | Добавлен: 2 года 9 мес. назад | Торрент скачан:2 раза
Смотреть онлайн Смерть - моё ремесло | Скачать    Ребята, помогите собрать деньги на оплату серверов!!!

03-04-2019 07:14 Смерть - моё ремесло Скачать торрент  

Название: Смерть – моё ремесло
Оригинальное название: Aus einem deutschen Leben
Год выпуска: 1977
Страна: Германия (ФРГ)
Жанр: драма, биография
Продолжительность: 02:24:50
Перевод: авторский

Режиссер: Теодор Котулла
В ролях: Гёц Георге, Элизабет Шварц, Курт Хюбнер, Ханс Корте, Маттиас Фукс, Кай Ташнер, Сигурд Фицек, Петер Франке, Вильфрид Эльсте, Клаус-Дитер Реентс, Герман Гюнтер, Петер Петран, Вернер Айкхорн, Петер Моланд, Ганс Шульце, Клаус Энскат, Клаус Фукс, Приске Хефлих, Бригитте Яннер, Дитрих Керки, Манфред Мюллер

О фильме: Фильм рассказывает о жизни оберштурмбанфюрера Рудольфа Ланга — начальника, основателя и коменданта лагеря смерти «Освенцим-Биркенау». Фильм снят по одноимённому роману французского писателя Робера Мерля (1952).



Качество: BDRip 1080p
Формат: MKV
Видео: MPEG-4 AVC, 14.3 Mбит/с, 1480x1080, 24 Кадр/с
Аудио 1: русский, AC3, 192 kbps, 2 ch, 48 kHz [авторский, Юрий Живов]
Аудио 2: немецкий, DTS, 1509 kbps, 2 ch, 48 kHz [оригинал]
Главы/чаптеры
Общее
Уникальный идентификатор : 239708650841946714637093767114327387762 (0xB45634F4AE055106935652299D2CEE72)
Полное имя : D:\Video\Смерть - моё ремесло.1977.BDRip 1080p by msltel.mkv
Формат : Matroska
Версия формата : Version 4
Размер файла : 16,2 Гбайт
Продолжительность : 2 ч. 24 м.
Общий поток : 16,0 Мбит/сек
Название фильма : Rip by msltel
Дата кодирования : UTC 2019-04-03 09:22:53
Программа кодирования : mkvmerge v8.2.0 ('World of Adventure') 64bit
Библиотека кодирования : libebml v1.3.1 + libmatroska v1.4.2

Видео
Идентификатор : 1
Формат : AVC
Формат/Информация : Advanced Video Codec
Профиль формата : High@L4.1
Настройки формата : CABAC / 4 Ref Frames
Параметр CABAC формата : Да
Параметр RefFrames формата : 4 кадра
Идентификатор кодека : V_MPEG4/ISO/AVC
Продолжительность : 2 ч. 24 м.
Битрейт : 14,3 Мбит/сек
Ширина : 1480 пикселей
Высота : 1080 пикселей
Соотношение сторон : 1,370
Режим частоты кадров : Постоянный
Частота кадров : 24,000 кадра/сек
Цветовое пространство : YUV
Субдискретизация насыщенности : 4:2:0
Битовая глубина : 8 бит
Тип развёртки : Прогрессивная
Бит/(Пиксели*Кадры) : 0.373
Размер потока : 14,5 Гбайт (89%)
Библиотека кодирования : x264 core 157 r2935 545de2f
Настройки программы : cabac=1 / ref=4 / deblock=1:-2:-2 / analyse=0x3:0x113 / me=umh / subme=11 / psy=1 / psy_rd=1.00:0.15 / mixed_ref=1 / me_range=32 / chroma_me=1 / trellis=2 / 8x8dct=1 / cqm=0 / deadzone=21,11 / fast_pskip=0 / chroma_qp_offset=-3 / threads=6 / lookahead_threads=1 / sliced_threads=0 / nr=0 / decimate=1 / interlaced=0 / bluray_compat=0 / constrained_intra=0 / bframes=12 / b_pyramid=2 / b_adapt=2 / b_bias=0 / direct=1 / weightb=1 / open_gop=0 / weightp=2 / keyint=230 / keyint_min=23 / scenecut=40 / intra_refresh=0 / rc_lookahead=40 / rc=crf / mbtree=1 / crf=18.0 / qcomp=0.60 / qpmin=0 / qpmax=69 / qpstep=4 / vbv_maxrate=50000 / vbv_bufsize=62500 / crf_max=0.0 / nal_hrd=none / filler=0 / ip_ratio=1.40 / aq=1:1.00
Язык : German
Default : Да
Forced : Нет

Аудио #1
Идентификатор : 2
Формат : AC-3
Формат/Информация : Audio Coding 3
Коммерческое название : Dolby Digital
Идентификатор кодека : A_AC3
Продолжительность : 2 ч. 24 м.
Вид битрейта : Постоянный
Битрейт : 192 Кбит/сек
Каналы : 2 канала
Channel layout : L R
Частота : 48,0 КГц
Частота кадров : 31,250 кадров/сек (1536 SPF)
Битовая глубина : 16 бит
Метод сжатия : С потерями
Размер потока : 199 Мбайт (1%)
Заголовок : Юрий Живов
Язык : Russian
ServiceKind/String : Complete Main
Default : Да
Forced : Нет

Аудио #2
Идентификатор : 3
Формат : DTS
Формат/Информация : Digital Theater Systems
Идентификатор кодека : A_DTS
Продолжительность : 2 ч. 24 м.
Вид битрейта : Постоянный
Битрейт : 1509 Кбит/сек
Каналы : 2 канала
Channel layout : L R
Частота : 48,0 КГц
Частота кадров : 93,750 кадра/сек (512 SPF)
Битовая глубина : 24 бит
Метод сжатия : С потерями
Размер потока : 1,53 Гбайт (9%)
Заголовок : original
Язык : German
Default : Нет
Forced : Нет

Меню
00:00:00.000 : :Chapter 1
00:02:51.875 : :Chapter 2
00:10:32.415 : :Chapter 3
00:16:07.416 : :Chapter 4
00:28:40.625 : :Chapter 5
00:33:14.625 : :Chapter 6
00:48:58.916 : :Chapter 7
00:57:56.958 : :Chapter 8
01:02:20.625 : :Chapter 9
01:15:35.875 : :Chapter 10
01:19:38.957 : :Chapter 11
01:23:42.416 : :Chapter 12
01:45:08.875 : :Chapter 13
01:51:32.416 : :Chapter 14
02:15:46.875 : :Chapter 15
02:20:09.415 : :Chapter 16
pb.wtf



Скачать Смерть - моё ремесло через торрент https://d.radikal.ru/d17/1904/35/6c483d9bcea4.jpg Скачать, смотреть онлайн Смерть - моё ремесло бесплантно в хорошем качестве О фильме: Фильм рассказывает о жизни оберштурмбанфюрера Рудольфа Ланга — начальника, основателя и коменданта лагеря смерти ... 5 10 1
Info! Золотая раздача, скачанное не засчитывается.
Торрент: Зарегистрирован [2019-04-03 07:14] · скачан: 2 раз
Статус: √ проверено
Размер: 16.19 GB
Как cкачать? Как скачать Смерть - моё ремесло через торрент | UTorrent

% Раздел Тема Автор DL S | L
Фильмы с авторской озвучкой [ 5.57 GB ] Смерть - моё ремесло / Aus einem deutschen Leben [1977 биография BDRip 720p by msltel] AVO msltel Скачать
1 | 0

28-11-2019 20:33  

Отключить всю рекламу на сайте

    Дорогой пользователь! Огромная просьба, поблагодарите релизера, оцените раздачу и оставьте свои комментарий, если Вы скачали Смерть - моё ремесло через торрент бесплатно!
    Комментировать посты могут только пользователи прошедшие не сложную регистрацию
    Показать сообщения:    

    Смерть - моё ремесло через торрент
    Скачать бесплатно Смерть - моё ремесло
    Смерть - моё ремесло скачать торрент
    Смерть - моё ремесло смотреть онлайн
    Cкачать фильм Смерть - моё ремесло бесплатно
    Смерть - моё ремесло скачать торрент в хорошем качестве
    Смерть - моё ремесло смотреть онлайн бесплатно в хорошем качестве


    Вы не можете начинать темы
    Вы не можете отвечать на сообщения
    Вы не можете редактировать свои сообщения
    Вы не можете удалять свои сообщения
    Вы не можете голосовать в опросах
    Вы не можете прикреплять файлы к сообщениям
    Вы можете скачивать файлы