Ссылка на приватное зеркало нашего сайта всего за 1$. Внимание количество ограничено!!!

2 сезон

iTunes

1 сезон

1

2 сезон

2 сезон

iTunes

1 сезон

RePack

30

Ultimate

ВАЖНО

ИГРА 18+

pack

RePack

MK11
pack

Забери бонус

RePack

jed

!!Акция!!

Alien_Rage

RePack

fifa19

RePack

Assassins Creed: Odyssey

RePack

NEED FOR SPEED™ PAYBACK

4 сезон

9 сезон

Бесстыжие 9 сезон

Все сериалы

все сериалы на PB.wtf

RePack

FAR CRY 5
  

Журнал 64 / Мистериум: Журнал 64 / Journal 64 (Кристоффер Боэ) [2018, Триллер, криминал, детектив, BD Remux 1080p] MVO [HDRezka Studio] +VO [Xixidok] pb.wtf

Журнал 64 через торрент pb.wtf

Размер: 20.06 GB | Добавлен: 1 год 7 мес. назад | Торрент скачан:41 раз
Скачать  

03-04-2019 07:42 Журнал 64 Скачать торрент  

Журнал 64 / Мистериум: Журнал 64 / Journal 64 Год выпуска: 2018
Страна: Дания, Германия
Жанр: Триллер, криминал, детектив
Продолжительность: 01:57:54
Перевод:

Профессиональный (многоголосый) | HDRezka Studio
Любительский (одноголосый, закадровый) | Xixidok

Субтитры: Русские (Full), Английские (Full)

Режиссер: Кристоффер Боэ

rating

В ролях:

Фарес Фарес, Николай Ли Каас, Николас Бро, Андерс Хове, Эллиотт Кроссет Хов, Андерс Юль, Сёрен Пильмарк, Фанни Борнедал, Вибеке Хаструп

Описание:

Детектив копенгагенской полиции Карл Мерк и его помощник Ассад обнаруживают в заброшенной квартире три мумифицированных трупа. Тела рассажены за обеденным столом, где стоит еще один стул. Расследование приводит Карла к женской клинике на необитаемом острове, в которой проводились жестокие эксперименты

Журнал 64 (или дело номер 64) четвертая серия популярного сериала Мистериум

Качество: BD Remux 1080p
Формат: MKV

Видео: AVC/H264, 1920x1080, 24.000 fps, 20.0 Mbps
Аудио#1: AC-3, 2 ch, 192 Kbps - Русский (MVO-HDRezka Studio)
Аудио#2: AC-3, 2 ch, 256 Kbps - Русский (VO-Xixidok)
Аудио#3: DTS-HD MA, 6 ch, 3 909 Kbps - Датский (Оригинал)
скриншот  скриншот  скриншот  скриншот  

General
Unique ID : 26314446081011275277592002687851238927 (0x13CBFA5C17FC8673296C44BBF387160F)
Complete name : Журнал.64 -Journal.64.2018.BDRemux.1080p.MVO.VO.NNMClub.mkv
Format : Matroska
Format version : Version 4
File size : 20.1 GiB
Duration : 1 h 57 min
Overall bit rate mode : Variable
Overall bit rate : 24.4 Mb/s
Encoded date : UTC 2019-04-02 17:15:53
Writing application : mkvmerge v32.0.0 ('Astral Progressions') 64-bit
Writing library : libebml v1.3.7 + libmatroska v1.5.0

Video
ID : 1
Format : AVC
Format/Info : Advanced Video Codec
Format profile : High@L4.1
Format settings : CABAC / 4 Ref Frames
Format settings, CABAC : Yes
Format settings, ReFrames : 4 frames
Format settings, GOP : M=3, N=12
Codec ID : V_MPEG4/ISO/AVC
Duration : 1 h 57 min
Bit rate mode : Variable
Bit rate : 20.0 Mb/s
Maximum bit rate : 35.0 Mb/s
Width : 1 920 pixels
Height : 1 080 pixels
Display aspect ratio : 16:9
Frame rate mode : Constant
Frame rate : 24.000 FPS
Standard : NTSC
Color space : YUV
Chroma subsampling : 4:2:0
Bit depth : 8 bits
Scan type : Progressive
Bits/(Pixel*Frame) : 0.402
Stream size : 16.5 GiB (82%)
Language : Danish
Default : Yes
Forced : No
Color range : Limited
Color primaries : BT.709
Transfer characteristics : BT.709
Matrix coefficients : BT.709

Audio #1
ID : 2
Format : AC-3
Format/Info : Audio Coding 3
Commercial name : Dolby Digital
Codec ID : A_AC3
Duration : 1 h 57 min
Bit rate mode : Constant
Bit rate : 192 kb/s
Channel(s) : 2 channels
Channel layout : L R
Sampling rate : 48.0 kHz
Frame rate : 31.250 FPS (1536 SPF)
Bit depth : 16 bits
Compression mode : Lossy
Stream size : 162 MiB (1%)
Title : MVO-HDRezka Studio
Language : Russian
Service kind : Complete Main
Default : No
Forced : No

Audio #2
ID : 3
Format : AC-3
Format/Info : Audio Coding 3
Commercial name : Dolby Digital
Codec ID : A_AC3
Duration : 1 h 57 min
Bit rate mode : Constant
Bit rate : 256 kb/s
Channel(s) : 2 channels
Channel layout : L R
Sampling rate : 48.0 kHz
Frame rate : 31.250 FPS (1536 SPF)
Bit depth : 16 bits
Compression mode : Lossy
Stream size : 216 MiB (1%)
Title : VO-Xixidok
Language : Russian
Service kind : Complete Main
Default : No
Forced : No

Audio #3
ID : 4
Format : DTS XLL
Format/Info : Digital Theater Systems
Commercial name : DTS-HD Master Audio
Codec ID : A_DTS
Duration : 1 h 57 min
Bit rate mode : Variable
Bit rate : 3 909 kb/s
Channel(s) : 6 channels
Channel layout : C L R Ls Rs LFE
Sampling rate : 48.0 kHz
Frame rate : 93.750 FPS (512 SPF)
Bit depth : 24 bits
Compression mode : Lossless
Stream size : 3.22 GiB (16%)
Language : Danish
Default : No
Forced : No

Text #1
ID : 5
Format : UTF-8
Codec ID : S_TEXT/UTF8
Codec ID/Info : UTF-8 Plain Text
Duration : 1 h 53 min
Bit rate : 76 b/s
Count of elements : 1000
Stream size : 63.7 KiB (0%)
Title : Full
Language : Russian
Default : No
Forced : No

Text #2
ID : 6
Format : UTF-8
Codec ID : S_TEXT/UTF8
Codec ID/Info : UTF-8 Plain Text
Duration : 1 h 52 min
Bit rate : 50 b/s
Count of elements : 1097
Stream size : 41.4 KiB (0%)
Title : Full
Language : English
Default : No
Forced : No

pb.wtf



Скачать Журнал 64 через торрент https://a.radikal.ru/a14/1902/a9/4d22a82d6c7c.jpg Скачать фильм Журнал 64 через торрент бесплантно в хорошем качестве Описание: Детектив копенгагенской полиции Карл Мерк и его помощник Ассад обнаруживают в заброшенной квартире три мумифицированных трупа. ... 9.3 10 4
Торрент: Зарегистрирован [2019-04-03 07:42] · скачан: 41 раз
Статус: T временная
Размер: 20.06 GB
Как cкачать? Как скачать Журнал 64 через торрент | qTorrent

% Раздел Тема Автор DL S | L
T Фильмы [HD 720p, 1080p] (Хороший звук DUB, MVO) [ 9.43 GB ] Журнал 64 / Мистериум: Журнал 64 / Journal 64 [2018 BDRip 1080p] MVO [HDRezka Studio] +VO [Xixidok] bober100 Скачать
2 | 0
T Фильмы 2018 [DVDrip, WEB-DLRip, HDrip] (DUB, MVO) [ 1.46 GB ] Журнал 64 / Мистериум: Журнал 64 / Journal 64 [2018 BDRip] MVO [HDRezka Studio] bober100 Скачать
1 | 0

28-11-2019 20:33  

Отключить всю рекламу на сайте

    Дорогой пользователь! Огромная просьба, поблагодарите релизера, оцените раздачу и оставьте свои комментарий, если Вы скачали Журнал 64 через торрент бесплатно! Внесите свою лепту в развитие PiratBit!
    Комментировать посты могут только пользователи прошедшие не сложную регистрацию
    Показать сообщения:    

    Журнал 64 через торрент
    Скачать бесплатно Журнал 64
    Журнал 64 скачать торрент
    Журнал 64 смотреть онлайн
    Cкачать фильм Журнал 64 бесплатно
    Журнал 64 скачать торрент в хорошем качестве
    Журнал 64 смотреть онлайн бесплатно в хорошем качестве


    Вы не можете начинать темы
    Вы не можете отвечать на сообщения
    Вы не можете редактировать свои сообщения
    Вы не можете удалять свои сообщения
    Вы не можете голосовать в опросах
    Вы не можете прикреплять файлы к сообщениям
    Вы можете скачивать файлы