Ссылка на приватное зеркало нашего сайта всего за 1$. Внимание количество ограничено!!!

2 сезон

iTunes

1 сезон

1

2 сезон

2 сезон

iTunes

1 сезон

RePack

30

Новинка

ВАЖНО

ИГРА 18+

pack

RePack

MK11
pack

Забери бонус

RePack

jed

!!Акция!!

Alien_Rage

RePack

fifa19

RePack

Assassins Creed: Odyssey

RePack

NEED FOR SPEED™ PAYBACK

4 сезон

9 сезон

Бесстыжие 9 сезон

Все сериалы

все сериалы на PB.wtf

RePack

FAR CRY 5
  

Мозаика / Mosaic / Сезон: 1 / Серии: 1-6 из 6 (Стивен Содерберг) [2018, Триллер, драма, криминал, детектив, WEBRip] MVO [Jaskier] pb.wtf

Мозаика через торрент pb.wtf

Размер: 3.7 GB | Добавлен: 1 год 8 мес. назад | Торрент скачан:20 раз
Скачать  

03-04-2019 08:34 Мозаика Скачать торрент  

Мозаика | Mosaic

Год выпуска: 2018
Страна: США
Жанр: Триллер, драма, криминал, детектив
Продолжительность: ~ 00:45:00
Перевод: Профессиональный (многоголосый закадровый) | Jaskier
Субтитры: отсутствуют

Режиссёр: Стивен Содерберг

В ролях:

Шэрон Стоун, Гаррет Хедлунд, Фред Уэллер, Дженнифер Феррин, Девин Рэтрей, Майя Кэзан, Бо Бриджес, Джеймс Рэнсон, Зэнди Хартиг, Майкл Серверис, Бриди Эллиотт, Пол Рубенс, Джейкоб Варгас, Эллисон Толман, Брэндон Рэй Олив, Джереми Бобб

Описание:

В центре сюжета — история убийства детской писательницы Оливии Лэйк (Шэрон Стоун). При помощи мобильного приложения каждый зритель сможет сам выбрать персонажа, с чьей точки зрения он будет следить за сюжетом. Каждый выбор будет напрямую влиять на развитие сюжета вплоть до различных концовок в зависимости от алгоритма действий зрителя.



Качество: WEBRip
Формат: AVI

Видео: XviD, ~ 1500 kbps, 720x400 (16:9), 23.976 fps
Аудио 1: MP3, 48,0 КГц, 2 ch, 128 kbps - Rus
Аудио 2: MP3, 48,0 КГц, 2 ch, 128 kbps - Eng


Реклама: Присутствует звуковая (два раза в начале и конце по 10 сек.)
Переведено и озвучено: студией Jaskier
Общее
Полное имя                               : F:\Jaskier\Mosaic Season 1 (WEBRip l 400p l Jaskier)\Mosaic.S01E01.WEBRip.Jaskier.avi
Формат                                   : AVI
Формат/Информация                        : Audio Video Interleave
Размер файла                             : 624 Мбайт
Продолжительность                        : 50 м. 9 с.
Общий поток                              : 1739 Кбит/сек
Программа кодирования                    : VirtualDubMod 1.5.10.3 | www.virtualdub-fr.org || (build 2550/release)

Видео
Идентификатор                            : 0
Формат                                   : MPEG-4 Visual
Профиль формата                          : Advanced Simple@L5
Настройки формата                        : BVOP2
Параметр BVOP формата                    : 2
Параметр QPel формата                    : Нет
Параметр GMC формата                     : Без точки перехода
Параметр матрицы формата                 : Default (H.263)
Идентификатор кодека                     : XVID
Идентификатор кодека/Подсказка           : XviD
Продолжительность                        : 50 м. 9 с.
Битрейт                                  : 1469 Кбит/сек
Ширина                                   : 720 пикселей
Высота                                   : 400 пикселей
Соотношение сторон                       : 16:9
Частота кадров                           : 23,976 (24000/1001) кадра/сек
Цветовое пространство                    : YUV
Субдискретизация насыщенности            : 4:2:0
Битовая глубина                          : 8 бит
Тип развёртки                            : Прогрессивная
Метод сжатия                             : С потерями
Бит/(Пиксели*Кадры)                      : 0.213
Размер потока                            : 527 Мбайт (84%)
Библиотека кодирования                   : XviD 67

Аудио #1
Идентификатор                            : 1
Формат                                   : MPEG Audio
Версия формата                           : Version 1
Профиль формата                          : Layer 3
Настройки формата                        : Joint stereo / MS Stereo
Идентификатор кодека                     : 55
Идентификатор кодека/Подсказка           : MP3
Продолжительность                        : 50 м. 9 с.
Вид битрейта                             : Постоянный
Битрейт                                  : 128 Кбит/сек
Каналы                                   : 2 канала
Частота                                  : 48,0 КГц
Частота кадров                           : 41,667 кадра/сек (1152 SPF)
Метод сжатия                             : С потерями
Размер потока                            : 45,9 Мбайт (7%)
Выравнивание                             : Соединение по промежуткам
Продолжительность промежутка             : 42  мс. (1,00 видеокадр)
Время предзагрузки промежутка            : 504  мс.
Библиотека кодирования                   : LAME3.100
Настройки программы                      : -m j -V 4 -q 3 -lowpass 17 -b 128

Аудио #2
Идентификатор                            : 2
Формат                                   : MPEG Audio
Версия формата                           : Version 1
Профиль формата                          : Layer 3
Настройки формата                        : Joint stereo
Идентификатор кодека                     : 55
Идентификатор кодека/Подсказка           : MP3
Продолжительность                        : 50 м. 9 с.
Вид битрейта                             : Постоянный
Битрейт                                  : 128 Кбит/сек
Каналы                                   : 2 канала
Частота                                  : 48,0 КГц
Метод сжатия                             : С потерями
Размер потока                            : 45,9 Мбайт (7%)
Выравнивание                             : Соединение по промежуткам
Продолжительность промежутка             : 42  мс. (1,00 видеокадр)
Время предзагрузки промежутка            : 504  мс.
скриншот  скриншот  скриншот  
pb.wtf



Скачать Мозаика через торрент http://i99.fastpic.ru/big/2018/0307/23/7b9d939daf191f4b1ef3746ee62e8123.jpg Скачать фильм Мозаика через торрент бесплантно в хорошем качестве Описание: В центре сюжета — история убийства детской писательницы Оливии Лэйк (Шэрон Стоун). При помощи мобильного приложения каждый ... 10 10 2
Торрент: Зарегистрирован [2019-04-03 08:34] · скачан: 20 раз
Статус: √ проверено
Размер: 3.7 GB
Как cкачать? Как скачать Мозаика через торрент | qTorrent

% Раздел Тема Автор DL S | L
Зарубежные сериалы [ 5.68 GB ] Мозаика / Mosaic / Сезон: 1 / Серии: 1-6 из 6 [2018 WEB-DL 720p] MVO [Amedia] bober100 Скачать
1 | 0
Зарубежные сериалы [ 13.6 GB ] Мозаика / Mosaic / Сезон: 1 / Серии: 1-6 из 6 [2018 WEBRip 1080p] MVO [Jaskier] bober100 Скачать
1 | 0
Зарубежные сериалы [ 5.82 GB ] Мозаика / Mosaic / Сезон: 1 / Серии: 1-6 из 6 [2018 WEBRip 720p] MVO [Jaskier] bober100 Скачать
1 | 0
Зарубежные сериалы [ 6.37 GB ] Мозаика / Mosaic / Сезон: 1 / Серия: 1-6 из 6 [2018 WEB-DL 720p] MVO [AMS] bober100 Скачать
1 | 0
Зарубежные сериалы [ 3.71 GB ] Мозаика / Mosaic / Сезон: 1 / Серии: 1-6 из 6 [2018 WEB-DLRip] MVO [NewStudio] bober100 Скачать
1 | 0
Зарубежные сериалы [ 3.42 GB ] Мозаика / Mosaic / Сезон: 1 / Серии 1-6 из 6 [2018 WEBRip] MVO [BaibaKo] GEKADOL Скачать
1 | 0
Зарубежные сериалы [ 13.05 GB ] Мозаика / Mosaic / Сезон: 1 / Серия: 1-6 из 6 [2018 HDTVRip 1080p] MVO [Амедиа] bober100 Скачать
1 | 0

28-11-2019 20:33  

Отключить всю рекламу на сайте

    Дорогой пользователь! Огромная просьба, поблагодарите релизера, оцените раздачу и оставьте свои комментарий, если Вы скачали Мозаика через торрент бесплатно! Внесите свою лепту в развитие PiratBit!
    Комментировать посты могут только пользователи прошедшие не сложную регистрацию
    Показать сообщения:    

    Мозаика через торрент
    Скачать бесплатно Мозаика
    Мозаика скачать торрент
    Мозаика смотреть онлайн
    Cкачать фильм Мозаика бесплатно
    Мозаика скачать торрент в хорошем качестве
    Мозаика смотреть онлайн бесплатно в хорошем качестве


    Вы не можете начинать темы
    Вы не можете отвечать на сообщения
    Вы не можете редактировать свои сообщения
    Вы не можете удалять свои сообщения
    Вы не можете голосовать в опросах
    Вы не можете прикреплять файлы к сообщениям
    Вы можете скачивать файлы