Всегда рабочее зеркало без VPN и Proxy просто перед .vidak.icu напиши любое слово или цифру, Пример http://jvch.vidak.icu

MVO

2 сезон

2 сезон

1

1 сезон

iTunes

2 сезон

13

1 сезон

Распродажа

pack

Рекомендуем

Пиратка

30

ВАЖНО

RePack

MK11

RePack

jed

RePack

fifa19

RePack

RDR2

RePack

NEED FOR SPEED™ PAYBACK

Кинопоиск HD

6 сезон

 Острые козырьки 6 сезон

Все сериалы

все сериалы на PB.wtf

RePack

FAR CRY 5

Anonymous, нам критически не хватает 5601 руб. на оплату серверов и переферии за Апрель, помоги нам пожалуйста, вся надежда только на тебя. В благодарность мы отключим тебе всю рекламу на сайте!

×
  
Magnet ссылка

Безумный Макс: Дорога ярости / Mad Max: Fury Road (Джордж Миллер) [2015, боевик, фантастика, приключения, UHD BDRip 2160p] Дубляж pb.wtf

Безумный Макс: Дорога ярости через торрент pb.wtf

Раздают: 1 [ 9 MB/s ]
Размер: 26.19 GB | Добавлен: 3 года 1 мес. назад | Торрент скачан:139 раз
Смотреть онлайн Безумный Макс: Дорога ярости | Скачать    Ребята, помогите собрать деньги на оплату серверов!!!

03-04-2019 09:56 Безумный Макс: Дорога ярости Скачать торрент  

Безумный Макс: Дорога ярости / Mad Max: Fury Road«Какой чудесный день»
Год выпуска: 2015
Страна: Австралия, США
Жанр: боевик, фантастика, приключения
Продолжительность: 02:00:21
Перевод: Дублированный
Субтитры: Русские (полные, форсированные), английские
Режиссер: Джордж Миллер
В ролях:

Том Харди (Max Rockatansky), Шарлиз Терон (Imperator Furiosa), Николас Холт (Nux), Хью Кияс-Бёрн (Immortan Joe), Джош Хелман (Slit), Нэйтан Джонс (Rictus Erectus), Зои Кравиц (Toast the Knowing), Роузи Хантингтон-Уайтли (The Splendid Angharad), Райли Кио (Capable), Эбби Ли (The Dag), Кортни Итон (Cheedo the Fragile), Джон Ховард (The People Eater)
Описание:
Преследуемый призраками беспокойного прошлого, Макс уверен, что лучший способ выжить - скитаться в одиночестве. Несмотря на это, он присоединяется к бунтарям, бегущим через всю пустыню на боевой фуре, под предводительством военачальника Фуриосы.
Рейтинг:

MPAA: R - Лицам до 17 лет обязательно присутствие взрослого
Качество: UHD BDRip 2160p
Формат: MKV
Видео: HEVC HDR, 19.7 Мбит/с, 3840x1600, 23.976 Кадр/с
Аудио 1: Russian DTS-HD MA 7.1, ~5723 kbps (Дублированный)
Аудио 2: English TrueHD + Atmos Dolby Digital, 8 ch, 5693.00 kbps
Навигация по главам: есть
Видео
Идентификатор : 1
Формат : HEVC
Формат/Информация : High Efficiency Video Coding
Профиль формата : Main 10@L5.1@High
Идентификатор кодека : V_MPEGH/ISO/HEVC
Продолжительность : 2 ч. 0 м.
Битрейт : 19,7 Мбит/сек
Ширина : 3840 пикселей
Высота : 1600 пикселей
Соотношение сторон : 2,40:1
Режим частоты кадров : Постоянный
Частота кадров : 23,976 (24000/1001) кадра/сек
Цветовое пространство : YUV
Субдискретизация насыщенности : 4:2:0 (Type 2)
Битовая глубина : 10 бит
Бит/(Пиксели*Кадры) : 0.133
Размер потока : 16,5 Гбайт (63%)
Заголовок : Mad.Max.Fury.Road.2015.2160p.BluRay.x265.10bit.HDR.DTS-HD.MA.TrueHD.7.1.Atmos
Библиотека кодирования : x265 2.5+4-b4a5bcfe29c7:[Windows][GCC 4.9.3][64 bit] 10bit
Настройки программы : cpuid=1173503 / frame-threads=16 / numa-pools=24,24,24,24 / wpp / no-pmode / no-pme / no-psnr / no-ssim / log-level=2 / input-csp=1 / input-res=3840x1600 / interlace=0 / total-frames=0 / level-idc=51 / high-tier=1 / uhd-bd=0 / ref=3 / no-allow-non-conformance / repeat-headers / annexb / aud / hrd / info / hash=0 / no-temporal-layers / no-open-gop / min-keyint=1 / keyint=24 / bframes=4 / b-adapt=2 / b-pyramid / bframe-bias=0 / rc-lookahead=25 / lookahead-slices=4 / scenecut=40 / no-intra-refresh / ctu=64 / min-cu-size=8 / no-rect / no-amp / max-tu-size=32 / tu-inter-depth=1 / tu-intra-depth=1 / limit-tu=0 / rdoq-level=0 / dynamic-rd=0.00 / no-ssim-rd / signhide / no-tskip / nr-intra=0 / nr-inter=0 / no-constrained-intra / strong-intra-smoothing / max-merge=2 / limit-refs=3 / no-limit-modes / me=1 / subme=2 / merange=57 / temporal-mvp / weightp / no-weightb / no-analyze-src-pics / deblock=0:0 / no-sao / no-sao-non-deblock / rd=3 / no-early-skip / rskip / no-fast-intra / no-tskip-fast / no-cu-lossless / no-b-intra / rdpenalty=0 / psy-rd=2.00 / psy-rdoq=0.00 / no-rd-refine / analysis-reuse-mode=0 / no-lossless / cbqpoffs=0 / crqpoffs=0 / rc=crf / crf=16.0 / qcomp=0.60 / qpstep=4 / stats-write=0 / stats-read=0 / vbv-maxrate=160000 / vbv-bufsize=160000 / vbv-init=0.9 / crf-max=0.0 / crf-min=0.0 / ipratio=1.40 / pbratio=1.30 / aq-mode=1 / aq-strength=1.00 / cutree / zone-count=0 / no-strict-cbr / qg-size=32 / no-rc-grain / qpmax=69 / qpmin=0 / no-const-vbv / sar=1 / overscan=0 / videoformat=5 / range=0 / colorprim=9 / transfer=16 / colormatrix=9 / chromaloc=1 / chromaloc-top=2 / chromaloc-bottom=2 / display-window=0 / master-display=G(13250,34500)B(7500,3000)R(34000,16000)WP(15635,16450)L(40000000,50) / max-cll=9918,3241 / min-luma=0 / max-luma=1023 / log2-max-poc-lsb=8 / vui-timing-info / vui-hrd-info / slices=1 / opt-qp-pps / opt-ref-list-length-pps / no-multi-pass-opt-rps / scenecut-bias=0.05 / no-opt-cu-delta-qp / no-aq-motion / hdr / hdr-opt / no-dhdr10-opt / analysis-reuse-level=5 / scale-factor=0 / refine-intra=0 / refine-inter=0 / refine-mv=0 / no-limit-sao / ctu-info=0
Язык : Russian
Default : Да
Forced : Нет
Цветовой диапазон : Limited
Основные цвета : BT.2020
Характеристики трансфера : PQ
Коэффициенты матрицы : BT.2020 non-constant
MasteringDisplay_ColorPrimaries : R: x=0.680000 y=0.320000, G: x=0.265000 y=0.690000, B: x=0.150000 y=0.060000, White point: x=0.312700 y=0.329000
MasteringDisplay_Luminance : min: 0.0050 cd/m2, max: 4000.0000 cd/m2
MaxCLL : 9918 cd/m2
MaxFALL : 3241 cd/m2

Аудио #1
Идентификатор : 2
Формат : DTS
Формат/Информация : Digital Theater Systems
Профиль формата : MA / Core
Идентификатор кодека : A_DTS
Продолжительность : 2 ч. 0 м.
Вид битрейта : Переменный / Постоянный
Битрейт : 5723 Кбит/сек / 1509 Кбит/сек
Каналы : 8 каналов / 6 каналов
Расположение каналов : Front: L C R, Side: L R, Back: L R, LFE / Front: L C R, Side: L R, LFE
Частота : 48,0 КГц
Частота кадров : 93,750 кадра/сек (512 SPF)
Битовая глубина : 24 бит
Метод сжатия : Без потерь / Lossy
Задержка видео : 554 мс.
Размер потока : 4,81 Гбайт (18%)
Заголовок : Дубляж
Язык : Russian
Default : Нет
Forced : Нет

Аудио #2
Идентификатор : 3
Формат : TrueHD
Профиль формата : TrueHD+Atmos / TrueHD
Идентификатор кодека : A_TRUEHD
Продолжительность : 2 ч. 0 м.
Вид битрейта : Переменный
Битрейт : 5693 Кбит/сек
Максимальный битрейт : 8412 Кбит/сек
Каналы : Object Based / 8 каналов
Расположение каналов : Object Based / Front: L C R, Side: L R, Back: L R, LFE
Частота : / 48,0 КГц
Частота кадров : 1200,000 кадров/сек (40 SPF)
Метод сжатия : Без потерь
Размер потока : 4,79 Гбайт (18%)
Заголовок : Original
Язык : English
Default : Нет
Forced : Нет

Текст #1
Идентификатор : 4
Формат : UTF-8
Идентификатор кодека : S_TEXT/UTF8
Идентификатор кодека/Информация : UTF-8 Plain Text
Продолжительность : 1 ч. 49 м.
Битрейт : 0 бит/сек
ElementCount : 9
Размер потока : 468 байт (0%)
Заголовок : Forced
Язык : Russian
Default : Да
Forced : Нет

Текст #2
Идентификатор : 5
Формат : UTF-8
Идентификатор кодека : S_TEXT/UTF8
Идентификатор кодека/Информация : UTF-8 Plain Text
Продолжительность : 1 ч. 53 м.
Битрейт : 39 бит/сек
ElementCount : 873
Размер потока : 33,0 Кбайт (0%)
Заголовок : Full
Язык : Russian
Default : Нет
Forced : Нет

Текст #3
Идентификатор : 6
Формат : UTF-8
Идентификатор кодека : S_TEXT/UTF8
Идентификатор кодека/Информация : UTF-8 Plain Text
Продолжительность : 1 ч. 51 м.
Битрейт : 24 бит/сек
ElementCount : 906
Размер потока : 19,7 Кбайт (0%)
Заголовок : Full
Язык : English
Default : Нет
Forced : Нет

Меню
00:00:00.000 : en:Chapter 01
00:10:42.475 : en:Chapter 02
00:19:06.435 : en:Chapter 03
00:30:12.309 : en:Chapter 04
00:42:55.613 : en:Chapter 05
00:49:33.344 : en:Chapter 06
00:59:55.173 : en:Chapter 07
01:13:02.542 : en:Chapter 08
01:22:08.921 : en:Chapter 09
01:30:02.729 : en:Chapter 10
01:40:39.867 : en:Chapter 11
01:49:12.546 : en:Chapter 12
01:53:06.279 : en:Chapter 13
02:00:23.131 : en:Chapter 14
pb.wtf



Скачать Безумный Макс: Дорога ярости через торрент https://b.radikal.ru/b20/1904/b0/b031bec9961b.png Скачать, смотреть онлайн Безумный Макс: Дорога ярости бесплантно в хорошем качестве Описание: Преследуемый призраками беспокойного прошлого, Макс уверен, что лучший способ выжить - скитаться в одиночестве. Несмотря на это, ... 10 10 8
Торрент: Зарегистрирован [2019-04-03 09:56] · скачан: 139 раз
Статус: √ проверено
Размер: 26.19 GB
Как cкачать? Как скачать Безумный Макс: Дорога ярости через торрент | UTorrent

% Раздел Тема Автор DL S | L
Ultra HD (UHD: 2K, 4K, 8K) — видео сверхвысокой чёткости [ 42.18 GB ] Безумный Макс: Дорога ярости / Mad Max: Fury Road [2015 UHDWEBRip 2160p] - [] sheker187 Скачать
1 | 0
Фильмы 2015 [DVDrip, WEB-DLRip, HDrip] [ 751 MB ] Безумный Макс: Дорога ярости / Mad Max: Fury Road [2015 HDRip] + Sub -Lexx- Скачать
1 | 0

28-11-2019 20:33  

Отключить всю рекламу на сайте

    Дорогой пользователь! Огромная просьба, поблагодарите релизера, оцените раздачу и оставьте свои комментарий, если Вы скачали Безумный Макс: Дорога ярости через торрент бесплатно!
    Комментировать посты могут только пользователи прошедшие не сложную регистрацию
    Показать сообщения:    

    Безумный Макс: Дорога ярости через торрент
    Скачать бесплатно Безумный Макс: Дорога ярости
    Безумный Макс: Дорога ярости скачать торрент
    Безумный Макс: Дорога ярости смотреть онлайн
    Cкачать фильм Безумный Макс: Дорога ярости бесплатно
    Безумный Макс: Дорога ярости скачать торрент в хорошем качестве
    Безумный Макс: Дорога ярости смотреть онлайн бесплатно в хорошем качестве


    Вы не можете начинать темы
    Вы не можете отвечать на сообщения
    Вы не можете редактировать свои сообщения
    Вы не можете удалять свои сообщения
    Вы не можете голосовать в опросах
    Вы не можете прикреплять файлы к сообщениям
    Вы можете скачивать файлы