Ссылка на приватное зеркало нашего сайта всего за 1$. Внимание количество ограничено!!!

2 сезон

iTunes

1 сезон

1

iTunes

iTunes

iTunes

1 сезон

RePack

30

ИГРА 18+

pack

ВАЖНО

!!Акция!!

Alien_RageХит недели

RePack

MK11
pack

Забери бонус

RePack

jed

!!Акция!!

Alien_Rage

RePack

fifa19

RePack

Assassins Creed: Odyssey

RePack

NEED FOR SPEED™ PAYBACK

4 сезон

9 сезон

Бесстыжие 9 сезон

Все сериалы

все сериалы на PB.wtf

RePack

FAR CRY 5
  

Гоголь / Серии: 1-8 из 8 (Егор Баранов) [2019, Детектив, приключения, драма, мистика, SATRip] pb.wtf

Гоголь через торрент pb.wtf

Размер: 4.69 GB | Добавлен: 1 год 6 мес. назад | Торрент скачан:222 раза
Скачать  

03-04-2019 12:50 Гоголь Скачать торрент  

Гоголь
Год выпуска: 2019
Страна: Россия
Жанр: Детектив, приключения, драма, мистика
Продолжительность: ~ 00:52:00
Перевод: Не требуется
Субтитры: отсутствуют

Режиссер: Егор Баранов



В ролях:

Александр Петров (II), Олег Меньшиков, Евгений Стычкин, Таисия Вилкова, Артём Ткаченко, Юлия Франц, Евгений Сытый, Ян Цапник, Сергей Бадюк, Марта Тимофеева, Алексей Вертков, Ксения Разина, Артем Сучков

Описание:

Такого Гоголя тебе в кино не покажут. Абсолютно новые серии, которые изменят все – киносериал «Гоголь», который будет состоять из восьми серий и включать два совершенно новых эпизода. Столичный писарь Николай Гоголь появится в откровенных кадрах серии "Мёртвые души": познакомит будущего классика русской литературы с весьма специфическим тайным обществом аристократов и помещиков. Кроме того, зрители услышат предысторию полицейского Бинха, и узнают, какая трагедия заставила его навсегда покинуть Петербург. Другой новый эпизод, "Колодец крови", позволит заглянуть в загадочное прошлое Диканьки, также омрачённое визитами Тёмного Всадника. Восьмисерийный киносериал "Гоголь" включает более ста минут свежего и оригинального контента, который не видел ещё никто.

Качество: SATRip
Формат: AVI

Видео: XviD, ~ 1414 Кбит/с, 720x400
Аудио: MP3, 2 ch, 192 Кбит/с
скриншот  скриншот  скриншот  

Общее
Полное имя : D:\Gogol.2017.XviD.SATRip.25Kuzmich\Gogol.e01.XviD.SATRip.25Kuzmich.avi
Формат : AVI
Формат/Информация : Audio Video Interleave
Размер файла : 600 Мбайт
Продолжительность : 51 м. 56 с.
Общий поток : 1616 Кбит/сек
Программа кодирования : VirtualDubMod 1.5.10.3 | www.virtualdub-fr.org || (build 2550/release)
Библиотека кодирования : VirtualDubMod build 2550/release

Видео
Идентификатор : 0
Формат : MPEG-4 Visual
Профиль формата : Advanced Simple@L5
Параметр BVOP формата : 1
Параметр QPel формата : Нет
Параметр GMC формата : Без точки перехода
Параметр матрицы формата : Default (MPEG)
Идентификатор кодека : XVID
Идентификатор кодека/Подсказка : XviD
Продолжительность : 51 м. 56 с.
Битрейт : 1414 Кбит/сек
Ширина : 720 пикселей
Высота : 400 пикселей
Соотношение сторон : 16:9
Частота кадров : 25,000 кадров/сек
Цветовое пространство : YUV
Субдискретизация насыщенности : 4:2:0
Битовая глубина : 8 бит
Тип развёртки : Прогрессивная
Метод сжатия : С потерями
Бит/(Пиксели*Кадры) : 0.196
Размер потока : 525 Мбайт (88%)
Библиотека кодирования : XviD 73

Аудио
Идентификатор : 1
Формат : MPEG Audio
Версия формата : Version 1
Профиль формата : Layer 3
Режим : Joint stereo
Идентификатор кодека : 55
Идентификатор кодека/Подсказка : MP3
Продолжительность : 51 м. 56 с.
Вид битрейта : Постоянный
Битрейт : 192 Кбит/сек
Каналы : 2 канала
Частота : 48,0 КГц
Метод сжатия : С потерями
Размер потока : 71,3 Мбайт (12%)
Выравнивание : Соединение по промежуткам
Продолжительность промежутка : 40 мс. (1,00 видеокадр)
Время предзагрузки промежутка : 504 мс.
Библиотека кодирования : LAME3.99r
Настройки программы : -m j -V 4 -q 2 -lowpass 18.6 -b 192

Когда раздача ведётся путём добавления новых серий, при каждом добавлении создётся новый торрент. Чтобы начать докачку новой серии, пользователям необходимо сделать следующее:
(1) остановить скачивание,
(2) удалить старый торрент у себя из клиента (старые серии удалять не надо),
(3) скачать новый торрент и запустить его у себя в клиенте вместо старого, при этом указать клиенту путь в старую папку, куда и должно происходить скачивание новых серий.
Ваш клиент при этом должен произвести хеширование (проверку) старой папки (если не производит сам - помогите ему сделать это), и будет докачивать только те серии, которых у вас ещё нет. Старые серии при этом не удаляются, а продолжают раздаваться!
Eсли вы уже удалили старые серии, то предотвратить повторную закачку старых серий можно, отжав галочку в соответсвующих местах при запуске нового торрента. По возможности, желательно не удалять старые серии как можно дольше, чтобы релизёр не столько продолжал раздавать старые серии, а смог сконцентрироваться на новых
pb.wtf



Скачать Гоголь через торрент https://i3.imageban.ru/out/2019/03/26/17975586dc7599eb3093011991d517e0.gif Скачать фильм Гоголь через торрент бесплантно в хорошем качестве Описание: Такого Гоголя тебе в кино не покажут. Абсолютно новые серии, которые изменят все – киносериал «Гоголь», который будет состоять из ... 10 10 8
Торрент: Зарегистрирован [2019-04-05 00:31] · скачан: 222 раз
Статус: √ проверено
Размер: 4.69 GB
Как cкачать? Как скачать Гоголь через торрент | qTorrent

% Раздел Тема Автор DL S | L
Наши сериалы [ 9.42 GB ] Гоголь / Серии: 1-8 из 8 [2019 WEB-DL 720p] bober100 Скачать
2 | 0
Наши сериалы [ 23.01 GB ] Гоголь / Серии: 1-8 из 8 [2019 HDTV 1080i] bober100 Скачать
1 | 0
Наши сериалы [ 5.2 GB ] Гоголь / Серии: 1-8 из 8 [2019 SATRip-AVC] aleksan55 Скачать
1 | 0

28-11-2019 20:33  

Отключить всю рекламу на сайте

    Дорогой пользователь! Огромная просьба, поблагодарите релизера, оцените раздачу и оставьте свои комментарий, если Вы скачали Гоголь через торрент бесплатно! Внесите свою лепту в развитие PiratBit!
    Комментировать посты могут только пользователи прошедшие не сложную регистрацию
    Показать сообщения:    

    Гоголь через торрент
    Скачать бесплатно Гоголь
    Гоголь скачать торрент
    Гоголь смотреть онлайн
    Cкачать фильм Гоголь бесплатно
    Гоголь скачать торрент в хорошем качестве
    Гоголь смотреть онлайн бесплатно в хорошем качестве


    Вы не можете начинать темы
    Вы не можете отвечать на сообщения
    Вы не можете редактировать свои сообщения
    Вы не можете удалять свои сообщения
    Вы не можете голосовать в опросах
    Вы не можете прикреплять файлы к сообщениям
    Вы можете скачивать файлы