Ссылка на приватное зеркало нашего сайта всего за 1$. Внимание количество ограничено!!!

2 сезон

iTunes

1 сезон

1

2 сезон

2 сезон

iTunes

1 сезон

RePack

30

Новинка

ВАЖНО

ИГРА 18+

pack

RePack

MK11
pack

Забери бонус

RePack

jed

!!Акция!!

Alien_Rage

RePack

fifa19

RePack

Assassins Creed: Odyssey

RePack

NEED FOR SPEED™ PAYBACK

4 сезон

9 сезон

Бесстыжие 9 сезон

Все сериалы

все сериалы на PB.wtf

RePack

FAR CRY 5
  

Шакал / The Jackal (Майкл Кейтон-Джонс) [1997, боевик, триллер, драма, BDRip - HEVC 1080p 12 bit 60 FPS] ПМ [Киномания] pb.wtf

Шакал через торрент pb.wtf

Размер: 1.93 GB | Добавлен: 1 год 8 мес. назад | Торрент скачан:44 раза
Скачать  

03-04-2019 17:55 Шакал Скачать торрент  

Шакал / The Jackal
««Он не оставляет свидетелей»»

Год выпуска: 1997
Страна: США, Великобритания, Франция, Германия, Япония
Жанр: боевик, триллер, драма, криминал

Продолжительность: 02:05:01
Перевод: Профессиональный многоголосый [Киномания]
Субтитры: русские (Русские Киномания)
Режиссер: Майкл Кейтон-Джонс
В ролях:

Брюс Уиллис (The Jackal), Ричард Гир (Declan Mulqueen), Сидни Пуатье (Preston), Дайан Венора (Valentina Koslova), Матильда Мэй (Isabella), Дж.К. Симмонс (Witherspoon), Ричард Лайнбэк (McMurphy), Джон Каннингэм (Donald Brown), Джек Блэк (Lamont), Тесс Харпер (The First Lady), Лесли Филлипс (Woolburton), Стивен Спинелла (Douglas)
Описание:
«Шакал» - это кличка. Под ней скрывается один из самых неуловимых преступников международного масштаба, наемный киллер, выполняющий самые сложные задания тех «работодателей», кто способен заплатить немалые деньги. После того, как в московском ночном клубе прошла совместная операция американских спецслужб и российской милиции, был убит один из главарей русской мафии, брат покойного обратился к Шакалу и сделал «заказ».
Мировая премьера: 14 ноября 1997

Качество: BDRip 1080p Rip by DD2D3
Формат: MKV
Видео: V_MPEGH/ISO/HEVC, 1920x816 (2.35:1), 1824 kbps, 59,940 fps, 0,019 bpp
Аудио: русский / AC3 / 5.1 / 48 kHz / 384 kbps / ||
Навигация по главам: есть



Общее
Уникальный идентификатор : 201158444867139183219730848812326046577 (0x9755B50E9266A2A3B57A4C90DD21CB71)
Полное имя : D:\Шакал - The Jackal (1997) BDRip - HEVC 1080p 12 bit 60 FPS.mkv
Формат : Matroska
Версия формата : Version 4
Размер файла : 1,93 Гбайт
Продолжительность : 2 ч. 5 м.
Общий поток : 2205 Кбит/сек
Название фильма : Rip by DD2D3
Дата кодирования : UTC 2019-04-01 19:09:59
Программа кодирования : mkvmerge v10.0.0 ('To Drown In You') 32bit
Библиотека кодирования : libebml v1.3.4 + libmatroska v1.4.5
Attachments : poster

Видео
Идентификатор : 1
Формат : HEVC
Формат/Информация : High Efficiency Video Coding
Профиль формата : @L4.1@Main
Идентификатор кодека : V_MPEGH/ISO/HEVC
Продолжительность : 2 ч. 4 м.
Битрейт : 1825 Кбит/сек
Ширина : 1920 пикселей
Высота : 816 пикселей
Соотношение сторон : 2,35:1
Режим частоты кадров : Постоянный
Частота кадров : 59,940 (60000/1001) кадров/сек
Цветовое пространство : YUV
Субдискретизация насыщенности : 4:2:0
Битовая глубина : 12 бит
Бит/(Пиксели*Кадры) : 0.019
Размер потока : 1,59 Гбайт (82%)
Библиотека кодирования : x265 2.3+33-0b7d54dbb71a87a0:[Windows][MSVC 1800][64 bit] 12bit: KG7x [x265.ru]
Настройки программы : cpuid=1173503 / frame-threads=2 / numa-pools=4 / wpp / no-pmode / no-pme / no-psnr / no-ssim / log-level=2 / input-csp=1 / input-res=1920x816 / interlace=0 / total-frames=447721 / level-idc=41 / high-tier=1 / uhd-bd=0 / ref=3 / no-allow-non-conformance / no-repeat-headers / annexb / no-aud / no-hrd / info / hash=0 / no-temporal-layers / open-gop / min-keyint=25 / keyint=250 / bframes=4 / b-adapt=2 / b-pyramid / bframe-bias=0 / rc-lookahead=20 / lookahead-slices=5 / scenecut=40 / no-intra-refresh / ctu=64 / min-cu-size=8 / no-rect / no-amp / max-tu-size=32 / tu-inter-depth=1 / tu-intra-depth=1 / limit-tu=0 / rdoq-level=0 / dynamic-rd=0.00 / no-ssim-rd / signhide / no-tskip / nr-intra=0 / nr-inter=0 / no-constrained-intra / strong-intra-smoothing / max-merge=2 / limit-refs=3 / no-limit-modes / me=1 / subme=2 / merange=57 / temporal-mvp / weightp / no-weightb / no-analyze-src-pics / deblock=0:0 / no-sao / no-sao-non-deblock / rd=3 / no-early-skip / no-rskip / no-fast-intra / no-tskip-fast / no-cu-lossless / no-b-intra / rdpenalty=0 / psy-rd=4.00 / psy-rdoq=0.00 / no-rd-refine / analysis-mode=0 / no-lossless / cbqpoffs=0 / crqpoffs=0 / rc=abr / bitrate=1821 / qcomp=0.60 / qpstep=1 / stats-write=0 / stats-read=2 / cplxblur=20.0 / qblur=0.5 / ipratio=1.10 / pbratio=1.00 / aq-mode=0 / aq-strength=0.00 / no-cutree / zone-count=0 / no-strict-cbr / qg-size=64 / rc-grain / qpmax=69 / qpmin=0 / sar=1 / overscan=0 / videoformat=5 / range=0 / colorprim=2 / transfer=2 / colormatrix=2 / chromaloc=0 / display-window=0 / max-cll=0,0 / min-luma=0 / max-luma=4095 / log2-max-poc-lsb=8 / vui-timing-info / vui-hrd-info / slices=1 / opt-qp-pps / opt-ref-list-length-pps / no-multi-pass-opt-rps / scenecut-bias=0.05 / no-opt-cu-delta-qp / no-aq-motion / no-hdr / no-hdr-opt / refine-level=5 / no-limit-sao
Default : Да
Forced : Нет

Аудио
Идентификатор : 2
Формат : AC-3
Формат/Информация : Audio Coding 3
Коммерческое название : Dolby Digital
Идентификатор кодека : A_AC3
Продолжительность : 2 ч. 4 м.
Вид битрейта : Постоянный
Битрейт : 384 Кбит/сек
Каналы : 6 каналов
Channel layout : L R C LFE Ls Rs
Частота : 48,0 КГц
Частота кадров : 31,250 кадров/сек (1536 SPF)
Битовая глубина : 16 бит
Метод сжатия : С потерями
Задержка видео : 2 с. 0 мс.
Размер потока : 343 Мбайт (17%)
Заголовок : Русский AC3, 384 Кбит/с - ПМ Киномания
Язык : Russian
ServiceKind/String : Complete Main
Default : Нет
Forced : Нет

Текст
Идентификатор : 3
Формат : UTF-8
Идентификатор кодека : S_TEXT/UTF8
Идентификатор кодека/Информация : UTF-8 Plain Text
Продолжительность : 1 ч. 57 м.
Битрейт : 58 бит/сек
ElementCount : 1002
Размер потока : 50,3 Кбайт (0%)
Заголовок : Русские Киномания
Язык : Russian
Default : Нет
Forced : Нет

Меню
00:00:00.000 : :Chapter 01
00:03:41.012 : :Chapter 02
00:08:08.946 : :Chapter 03
00:10:05.646 : :Chapter 04
00:12:21.866 : :Chapter 05
00:14:39.503 : :Chapter 06
00:18:21.183 : :Chapter 07
00:20:23.013 : :Chapter 08
00:22:25.135 : :Chapter 09
00:32:07.550 : :Chapter 10
00:38:58.961 : :Chapter 11
00:41:24.773 : :Chapter 12
00:45:13.168 : :Chapter 13
00:51:46.561 : :Chapter 14
00:53:28.496 : :Chapter 15
00:55:11.766 : :Chapter 16
00:57:00.542 : :Chapter 17
01:03:39.774 : :Chapter 18
01:07:16.532 : :Chapter 19
01:15:56.843 : :Chapter 20
01:18:35.836 : :Chapter 21
01:24:46.289 : :Chapter 22
01:30:38.266 : :Chapter 23
01:34:02.762 : :Chapter 24
01:38:15.848 : :Chapter 25
01:43:00.424 : :Chapter 26
01:45:03.463 : :Chapter 27
01:50:19.195 : :Chapter 28
01:52:51.055 : :Chapter 29
01:53:31.679 : :Chapter 30
01:56:22.433 : :Chapter 31
02:04:21.412 : :Chapter 32
скриншот  скриншот  скриншот  скриншот  

© Оформление by DD2D3 pb.wtf



Скачать Шакал через торрент https://funkyimg.com/i/2SSG3.jpg Скачать фильм Шакал через торрент бесплантно в хорошем качестве Описание: «Шакал» - это кличка. Под ней скрывается один из самых неуловимых преступников международного масштаба, наемный киллер, ... 10 10 4
Торрент: Зарегистрирован [2019-04-03 17:55] · скачан: 44 раз
Статус: # сомнительно
Размер: 1.93 GB
Как cкачать? Как скачать Шакал через торрент | qTorrent

% Раздел Тема Автор DL S | L
Фильмы с авторской озвучкой [ 1.24 GB ] Шакал / The Jackal [1997 HDRip] [AVO] killermax2013 Скачать
1 | 0
Фильмы с авторской озвучкой [ 2.06 GB ] Шакал / The Jackal [1997 BDRip] [AVO] killermax2013 Скачать
1 | 0
Фильмы [HD 720p, 1080p] (Хороший звук DUB, MVO) [ 18.68 GB ] Шакал / The Jackal [1997 BDRip 1080p by msltel] DUB 5 x MVO DVO 6 x AVO VO msltel Скачать
1 | 0
Фильмы [HD 720p, 1080p] (Хороший звук DUB, MVO) [ 8.05 GB ] Шакал / The Jackal [1997 BDRip 720p by msltel] DUB 5 x MVO DVO 6 x AVO VO msltel Скачать
1 | 0
Фильмы (Blu-ray, BD-Remux, HDDVD) [ 36.48 GB ] Шакал / The Jackal [1997 BDRemux 1080p] 2xMVO + 5xAVO sheker187 Скачать
1 | 0
Фильмы [HD 720p, 1080p] (Хороший звук DUB, MVO) [ 4.76 GB ] Шакал / The Jackal [1997 BDRip 1080p HEVC ] Мичман37 Скачать
1 | 0
R.G. Resident & PiratVoice - Фильмы, Видео [ 5.87 GB ] День Шакала / The Day of the Jackal [1973 BDRip-AVC] 2 x MVO DVO 2 x AVO - R.G.Resident schultz Скачать
1 | 0

28-11-2019 20:33  

Отключить всю рекламу на сайте

03-04-2019 20:37 Шакал Скачать торрент  

Какой классный фильм, пересматриваю его время от времениpb.wtf



04-04-2019 08:02 Шакал Скачать торрент  

Фильм pb.wtf



    Дорогой пользователь! Огромная просьба, поблагодарите релизера, оцените раздачу и оставьте свои комментарий, если Вы скачали Шакал через торрент бесплатно! Внесите свою лепту в развитие PiratBit!
    Комментировать посты могут только пользователи прошедшие не сложную регистрацию
    Показать сообщения:    

    Шакал через торрент
    Скачать бесплатно Шакал
    Шакал скачать торрент
    Шакал смотреть онлайн
    Cкачать фильм Шакал бесплатно
    Шакал скачать торрент в хорошем качестве
    Шакал смотреть онлайн бесплатно в хорошем качестве


    Вы не можете начинать темы
    Вы не можете отвечать на сообщения
    Вы не можете редактировать свои сообщения
    Вы не можете удалять свои сообщения
    Вы не можете голосовать в опросах
    Вы не можете прикреплять файлы к сообщениям
    Вы можете скачивать файлы