Ссылка на приватное зеркало нашего сайта всего за 1$. Внимание количество ограничено!!!

2 сезон

iTunes

1 сезон

1

2 сезон

2 сезон

iTunes

1 сезон

RePack

30

Новинка

ВАЖНО

ИГРА 18+

pack

RePack

MK11
pack

Забери бонус

RePack

jed

!!Акция!!

Alien_Rage

RePack

fifa19

RePack

Assassins Creed: Odyssey

RePack

NEED FOR SPEED™ PAYBACK

4 сезон

9 сезон

Бесстыжие 9 сезон

Все сериалы

все сериалы на PB.wtf

RePack

FAR CRY 5
  

Вавилон-Берлин / Babylon Berlin / Сезон: 2 / Серии: 1-8 из 8 (Том Тыквер, Хендрик Хандлёгтен, Ахим фон Боррис) [2017, драма, криминал, WEBRip 1080p] MVO [TVShows] pb.wtf

Вавилон-Берлин через торрент pb.wtf

Размер: 16.44 GB | Добавлен: 1 год 7 мес. назад | Торрент скачан:9 раз
Скачать  

03-04-2019 19:41 Вавилон-Берлин Скачать торрент  

Вавилон-Берлин - Второй сезон
Babylon Berlin - Die zweite Staffel
Год выпуска: 2017
Страна: Германия
Производство: Sky 1
Жанр: драма, криминал
Продолжительность: 00:45:00
Перевод: Профессиональный (многоголосый) | TVShows
Субтитры: английские
Оригинальная аудиодорожка: английская, русский

Режиссёры
: Том Тыквер, Хендрик Хандлёгтен, Ахим фон Боррис

rating


В ролях:

Фолькер Брух, Лив Лиза Фриc, Юлиус Фельдмайер, Кристиан Фридель, Дмитрий Александров, Антония Путилофф, Олег Тихомиров, Антон фон Лукке, Леони Бенеш, Йоахим Пауль Ассбёк, Северия Янушаускайте, Маттиас Брандт, Пит Буковски, Марко Дырлих, Лилли Фихтнер, Петер Курт, Бенно Фюрманн, Ханна Херцзпрунг, Ларс Айдингер, Фрици Хаберландт, Себастиан Урцендовский, Карл Маркович и др.

Описание: Действие происходит в Германии в конце 1920-х — начале 1930-х годов, до прихода к власти нацистов. Комиссар полиции Гереон Рат занимается раскрытием различных преступлений в Берлине — от убийств до торговли наркотиками. Главный герой видит, как стремительно меняется общество, и на первый план выходят такие явления, как эмансипация и экстремизм…

Качество: WEBRip 1080p
Формат: MKV

Видео: x264, 1920x1080 (16:9), 25.000 fps, ~4420 kbps avg, 0.112 bit/pixel
Аудио #1: Russian 48.0 KHz, AC3, 2/0 (Front: L R) ch, ~384.00 kbps avg |TVShows|
Аудио #2: Multi 48.0 KHz, АAC, 3/2 (L,C,R,l,r) + LFE ch, ~449.00 kbps avg |Original|
Общее
Уникальный идентификатор : 107297505451453825040188503775536977144 (0x50B8BF74744966B80B853B18D9F394F8)
Полное имя : I:\Тифайл\Подготовка\Babylon.Berlin.S02.1080p.TVShows\Babylon.Berlin.S02E01.1080p.TVShows.mkv
Формат : Matroska
Версия формата : Version 4 / Version 2
Размер файла : 1,69 Гбайт
Продолжительность : 45 м. 46 с.
Режим общего битрейта : Переменный
Общий поток : 5295 Кбит/сек
Дата кодирования : UTC 2019-03-19 20:50:18
Программа кодирования : mkvmerge v31.0.0 ('Dolores In A Shoestand') 64-bit
Библиотека кодирования : libebml v1.3.6 + libmatroska v1.4.9

Видео
Идентификатор : 1
Формат : AVC
Формат/Информация : Advanced Video Codec
Профиль формата : Main@L4
Параметр CABAC формата : Да
Параметр ReFrames формата : 3 кадра
Идентификатор кодека : V_MPEG4/ISO/AVC
Продолжительность : 45 м. 46 с.
Вид битрейта : Переменный
Битрейт : 4420 Кбит/сек
Максимальный битрейт : 6630 Кбит/сек
Ширина : 1920 пикселей
Высота : 1080 пикселей
Соотношение сторон : 16:9
Режим частоты кадров : Постоянный
Частота кадров : 25,000 кадров/сек
Цветовое пространство : YUV
Субдискретизация насыщенности : 4:2:0
Битовая глубина : 8 бит
Тип развёртки : Прогрессивная
Бит/(Пиксели*Кадры) : 0.085
Размер потока : 1,41 Гбайт (83%)
Библиотека кодирования : x264 core 148 r2714 2daf636
Настройки программы : cabac=1 / ref=3 / deblock=1:0:0 / analyse=0x1:0x111 / me=umh / subme=10 / psy=1 / psy_rd=1.00:0.00 / mixed_ref=1 / me_range=24 / chroma_me=1 / trellis=2 / 8x8dct=0 / cqm=0 / deadzone=21,11 / fast_pskip=1 / chroma_qp_offset=-2 / threads=8 / lookahead_threads=1 / sliced_threads=0 / nr=0 / decimate=1 / interlaced=0 / bluray_compat=0 / stitchable=1 / constrained_intra=0 / bframes=2 / b_pyramid=0 / b_adapt=2 / b_bias=0 / direct=3 / weightb=1 / open_gop=0 / weightp=2 / keyint=50 / keyint_min=26 / scenecut=0 / intra_refresh=0 / rc_lookahead=50 / rc=2pass / mbtree=1 / bitrate=4420 / ratetol=1.0 / qcomp=0.50 / qpmin=6 / qpmax=51 / qpstep=4 / cplxblur=20.0 / qblur=0.5 / vbv_maxrate=6630 / vbv_bufsize=8840 / nal_hrd=vbr / filler=0 / ip_ratio=1.40 / aq=1:1.00
Default : Да
Forced : Нет

Аудио #1
Идентификатор : 2
Формат : AC-3
Формат/Информация : Audio Coding 3
Параметр Endianness формата : Big
Идентификатор кодека : A_AC3
Продолжительность : 45 м. 46 с.
Вид битрейта : Постоянный
Битрейт : 384 Кбит/сек
Каналы : 6 каналов
Расположение каналов : Front: L C R, Side: L R, LFE
Частота : 48,0 КГц
Частота кадров : 31,250 кадров/сек (1536 spf)
Битовая глубина : 16 бит
Метод сжатия : С потерями
Размер потока : 126 Мбайт (7%)
Заголовок : TVShows
Язык : Russian
ServiceKind/String : Complete Main
Default : Да
Forced : Да

Аудио #2
Идентификатор : 3
Формат : AAC
Формат/Информация : Advanced Audio Codec
Профиль формата : LC
Идентификатор кодека : A_AAC
Продолжительность : 45 м. 46 с.
Битрейт : 499 Кбит/сек
Каналы : 6 каналов
Расположение каналов : Front: L C R, Side: L R, LFE
Частота : 48,0 КГц
Частота кадров : 46,875 кадров/сек (1024 spf)
Метод сжатия : С потерями
Размер потока : 163 Мбайт (9%)
Заголовок : Original
Язык : German
Default : Нет
Forced : Нет

Текст
Идентификатор : 4
Формат : UTF-8
Идентификатор кодека : S_TEXT/UTF8
Идентификатор кодека/Информация : UTF-8 Plain Text
Продолжительность : 44 м. 47 с.
Битрейт : 3 бит/сек
ElementCount : 33
Размер потока : 1,07 Кбайт (0%)
Заголовок : English
Язык : English
Default : Нет
Forced : Нет
скриншот  скриншот  скриншот  

скриншот  скриншот  скриншот  
pb.wtf



Скачать Вавилон-Берлин через торрент http://i4.imageban.ru/out/2017/10/18/9450a8ed9e484367ceff553c412f1a12.jpg Скачать фильм Вавилон-Берлин через торрент бесплантно в хорошем качестве Описание: Действие происходит в Германии в конце 1920-х — начале 1930-х годов, до прихода к власти нацистов. Комиссар полиции Гереон Рат ... 10 10 2
Торрент: Зарегистрирован [2019-04-03 19:41] · скачан: 9 раз
Статус: √ проверено
Размер: 16.44 GB
Как cкачать? Как скачать Вавилон-Берлин через торрент | qTorrent

% Раздел Тема Автор DL S | L
Зарубежные сериалы [ 11.41 GB ] Вавилон-Берлин / Babylon Berlin / Сезон: 2 / Серии: 1-8 из 8 [2017 история WEBRip 720p] MVO [Jaskier] bober100 Скачать
1 | 0
Зарубежные сериалы [ 4.3 GB ] Вавилон-Берлин / Babylon Berlin / Сезон: 2 / Серии: 1-8 из 8 [2017 история WEBRip] MVO [Jaskier] bober100 Скачать
2 | 0
Зарубежные сериалы [ 17.27 GB ] Вавилон-Берлин / Babylon Berlin / Сезон 2 / Серии 1-8 из 8 [2017 HDTV 1080p] [MVO] killermax2013 Скачать
1 | 0

28-11-2019 20:33  

Отключить всю рекламу на сайте

    Дорогой пользователь! Огромная просьба, поблагодарите релизера, оцените раздачу и оставьте свои комментарий, если Вы скачали Вавилон-Берлин через торрент бесплатно! Внесите свою лепту в развитие PiratBit!
    Комментировать посты могут только пользователи прошедшие не сложную регистрацию
    Показать сообщения:    

    Вавилон-Берлин через торрент
    Скачать бесплатно Вавилон-Берлин
    Вавилон-Берлин скачать торрент
    Вавилон-Берлин смотреть онлайн
    Cкачать фильм Вавилон-Берлин бесплатно
    Вавилон-Берлин скачать торрент в хорошем качестве
    Вавилон-Берлин смотреть онлайн бесплатно в хорошем качестве


    Вы не можете начинать темы
    Вы не можете отвечать на сообщения
    Вы не можете редактировать свои сообщения
    Вы не можете удалять свои сообщения
    Вы не можете голосовать в опросах
    Вы не можете прикреплять файлы к сообщениям
    Вы можете скачивать файлы