Ссылка на приватное зеркало нашего сайта всего за 1$. Внимание количество ограничено!!!

2 сезон

iTunes

1 сезон

1

2 сезон

2 сезон

iTunes

1 сезон

RePack

30

Ultimate

ВАЖНО

ИГРА 18+

pack

RePack

MK11
pack

Забери бонус

RePack

jed

!!Акция!!

Alien_Rage

RePack

fifa19

RePack

Assassins Creed: Odyssey

RePack

NEED FOR SPEED™ PAYBACK

4 сезон

9 сезон

Бесстыжие 9 сезон

Все сериалы

все сериалы на PB.wtf

RePack

FAR CRY 5
  

Реальные воспоминания международного убийцы / True Memoirs of an International Assassin (Джефф Уодлоу ) [2016, боевик, комедия, WEBRip 1080p] MVO [HDRezka Studio] - ExKinoRay pb.wtf

Реальные воспоминания международного убийцы через торрент pb.wtf

Размер: 6.61 GB | Добавлен: 1 год 7 мес. назад | Торрент скачан:118 раз
Скачать  

04-04-2019 00:51 Реальные воспоминания международного убийцы Скачать торрент  

Информация о фильме
Название: Реальные воспоминания международного убийцы
Оригинальное название: True Memoirs of an International Assassin
Год выхода: 2016
Жанр: боевик, комедия
Режиссер: Джефф Уодлоу
В ролях: Кевин Джеймс, Ким Коутс, Морис Комт, Сулай Энао, Эндрю Ховард, Рон Рифкин, Юл Васкес, П.Дж. Бирн, Келен Коулмэн, Леонард Эрл Хауз

Описание: Начинающий писатель решает выпустить свою первую книгу «Воспоминания международного убийцы» в виде реальных историй. Его произведение быстро становится популярным и раскупается с невероятной скоростью. Однако книга заинтересовывает не только простых читателей, но и обращает на себя внимание ЦРУ, мелких преступников и влиятельных бандитов, заставляя бедного робкого писателя оказаться на месте своего персонажа.



Страна: США
Продолжительность: 01:38:01
Перевод: Профессиональный (многоголосый, закадровый) | HDRezka Studio
Субтитры: Английские, французские, немецкие, итальянские

БЕЗ КАКОЙ-ЛИБО РЕКЛАМЫ!

Формат: MKV
Качество: WEBRip 1080p
Видео: MPEG-4 AVC, 1920x804 (2.40:1), 23.976 fps, 8853 Kbps, 0.239 bit/pixel
Аудио 1: 48 kHz, AC3, 2.0, 192 Kbps | MVO | RUS |
Аудио 2: 48 kHz, AC3, 5.1, 384 Kbps | Оригинал | ENG |
General
Unique ID : 187347568732755666709488179784000606698 (0x8CF1D44A9569498399A6F7364B1611EA)
Complete name : F:\True.Memoirs.of.an.International.Assassin.2016.MVO.1080p.NF.WEBRip.ExKinoRay.mkv
Format : Matroska
Format version : Version 2
File size : 6.61 GiB
Duration : 1 h 38 min
Overall bit rate : 9 620 kb/s
Movie name : True Memoirs of an International Assassin 2016 from ExKinoRay
Encoded date : UTC 2019-04-03 22:46:22
Writing application : mkvmerge v5.6.0 ('Kenya Kane') built on May 27 2012 16:44:04
Writing library : libebml v1.2.3 + libmatroska v1.3.0

Video
ID : 1
Format : AVC
Format/Info : Advanced Video Codec
Format profile : High@L4.1
Format settings, CABAC : Yes
Format settings, ReFrames : 5 frames
Codec ID : V_MPEG4/ISO/AVC
Duration : 1 h 38 min
Bit rate : 8 853 kb/s
Width : 1 920 pixels
Height : 804 pixels
Display aspect ratio : 2.40:1
Frame rate mode : Constant
Frame rate : 23.976 (24000/1001) FPS
Color space : YUV
Chroma subsampling : 4:2:0
Bit depth : 8 bits
Scan type : Progressive
Bits/(Pixel*Frame) : 0.239
Stream size : 6.09 GiB (92%)
Writing library : x264 core 144 r2525 40bb568
Encoding settings : cabac=1 / ref=5 / deblock=1:-3:-3 / analyse=0x3:0x133 / me=umh / subme=10 / psy=1 / psy_rd=1.00:0.00 / mixed_ref=1 / me_range=48 / chroma_me=1 / trellis=2 / 8x8dct=1 / cqm=0 / deadzone=21,11 / fast_pskip=1 / chroma_qp_offset=-2 / threads=12 / lookahead_threads=2 / sliced_threads=0 / nr=0 / decimate=1 / interlaced=0 / bluray_compat=0 / constrained_intra=0 / bframes=8 / b_pyramid=2 / b_adapt=2 / b_bias=0 / direct=3 / weightb=1 / open_gop=0 / weightp=2 / keyint=250 / keyint_min=23 / scenecut=40 / intra_refresh=0 / rc=crf / mbtree=0 / crf=17.5 / qcomp=0.60 / qpmin=0 / qpmax=69 / qpstep=4 / ip_ratio=1.30 / pb_ratio=1.20 / aq=3:0.80
Language : English
Default : Yes
Forced : No

Audio #1
ID : 2
Format : AC-3
Format/Info : Audio Coding 3
Mode extension : CM (complete main)
Format settings, Endianness : Big
Codec ID : A_AC3
Duration : 1 h 38 min
Bit rate mode : Constant
Bit rate : 192 kb/s
Channel(s) : 2 channels
Channel positions : Front: L R
Sampling rate : 48.0 kHz
Frame rate : 31.250 FPS (1536 spf)
Compression mode : Lossy
Stream size : 135 MiB (2%)
Title : MVO (HDRezka Studio)
Language : Russian
Default : No
Forced : No

Audio #2
ID : 3
Format : AC-3
Format/Info : Audio Coding 3
Mode extension : CM (complete main)
Format settings, Endianness : Big
Codec ID : A_AC3
Duration : 1 h 38 min
Bit rate mode : Constant
Bit rate : 384 kb/s
Channel(s) : 6 channels
Channel positions : Front: L C R, Side: L R, LFE
Sampling rate : 48.0 kHz
Frame rate : 31.250 FPS (1536 spf)
Compression mode : Lossy
Stream size : 270 MiB (4%)
Language : English
Default : No
Forced : No

Text #1
ID : 4
Format : UTF-8
Codec ID : S_TEXT/UTF8
Codec ID/Info : UTF-8 Plain Text
Title : Forced
Language : English
Default : No
Forced : No

Text #2
ID : 5
Format : UTF-8
Codec ID : S_TEXT/UTF8
Codec ID/Info : UTF-8 Plain Text
Language : English
Default : No
Forced : No

Text #3
ID : 6
Format : UTF-8
Codec ID : S_TEXT/UTF8
Codec ID/Info : UTF-8 Plain Text
Language : French
Default : No
Forced : No

Text #4
ID : 7
Format : UTF-8
Codec ID : S_TEXT/UTF8
Codec ID/Info : UTF-8 Plain Text
Language : German
Default : No
Forced : No

Text #5
ID : 8
Format : UTF-8
Codec ID : S_TEXT/UTF8
Codec ID/Info : UTF-8 Plain Text
Language : Italian
Default : No
Forced : No
Релиз от:

Автор релиза: pb.wtf



Скачать Реальные воспоминания международного убийцы через торрент http://i97.fastpic.ru/big/2017/1118/a0/8d0dbb4f250522b7701fc8761811baa0.jpg Скачать фильм Реальные воспоминания международного убийцы через торрент бесплантно в хорошем качестве Описание: Начинающий писатель решает выпустить свою первую книгу «Воспоминания международного убийцы» в виде реальных историй. Его ... 10 10 2
Info! Золотая раздача, скачанное не засчитывается.
Торрент: Зарегистрирован [2019-04-04 00:51] · скачан: 118 раз
Статус: T временная
Размер: 6.61 GB
Как cкачать? Как скачать Реальные воспоминания международного убийцы через торрент | qTorrent

% Раздел Тема Автор DL S | L
T Фильмы 2016 [DVDrip, WEB-DLRip, HDrip] (DUB, MVO) [ 1.37 GB ] Реальные воспоминания международного убийцы / True Memoirs of an International Assassin [2016 WEBRip] MVO [HDRezka Studio] - ExKinoRay Enigma2010 Скачать
13 | 0

28-11-2019 20:33  

Отключить всю рекламу на сайте

    Дорогой пользователь! Огромная просьба, поблагодарите релизера, оцените раздачу и оставьте свои комментарий, если Вы скачали Реальные воспоминания международного убийцы через торрент бесплатно! Внесите свою лепту в развитие PiratBit!
    Комментировать посты могут только пользователи прошедшие не сложную регистрацию
    Показать сообщения:    

    Реальные воспоминания международного убийцы через торрент
    Скачать бесплатно Реальные воспоминания международного убийцы
    Реальные воспоминания международного убийцы скачать торрент
    Реальные воспоминания международного убийцы смотреть онлайн
    Cкачать фильм Реальные воспоминания международного убийцы бесплатно
    Реальные воспоминания международного убийцы скачать торрент в хорошем качестве
    Реальные воспоминания международного убийцы смотреть онлайн бесплатно в хорошем качестве


    Вы не можете начинать темы
    Вы не можете отвечать на сообщения
    Вы не можете редактировать свои сообщения
    Вы не можете удалять свои сообщения
    Вы не можете голосовать в опросах
    Вы не можете прикреплять файлы к сообщениям
    Вы можете скачивать файлы