Ссылка на приватное зеркало всего за 1$. Внимание количество ограничено!!!

OK

1+1

iTunes

мы

OK

1

WEB-DLRip

Джокер

Пифагор

Ведьмак / The Witcher сериал

iTunes

ПШазам

ОК

Оно 2

iTunes

30
pack

Вам бонус

ВАЖНО

!!Акция!!

Alien_RageХит недели

RePack

Resident Evil 21

ИГРА 18+

pack

RePack

jed

RePack

fifa19

RePack

Assassins Creed: Odyssey

RePack

NEED FOR SPEED™ PAYBACK

4 сезон

9 сезон

Бесстыжие 9 сезон

Все сериалы

все сериалы на PB.wtf

RePack

FAR CRY 5
  

Стучась в закрытые двери / Pulling Push Doors (Аарон Хендрен) [2017, Драма, мелодрама, комедия, WEB-DL 720p] MVO ["Синема УС"] pb.wtf

Стучась в закрытые двери через торрент pb.wtf

Размер: 2.76 GB | Добавлен: 9 мес. назад | Торрент скачан:1 раз
Скачать  

04-04-2019 01:52 Стучась в закрытые двери Скачать торрент  

Стучась в закрытые двери / Pulling Push DoorsГод выпуска: 2017
Страна: США, Чехия, Нидерланды, Польша
Жанр: Драма, мелодрама, комедия
Продолжительность: 01:25:49
Перевод: Любительский (многоголосый) | "Синема УС"
Субтитры: отсутствуют

Режиссер: Аарон Хендрен

rating

В ролях: Лорен Пул, Харрисон Сим, Рианнон Фрэзиер, Кэти Гоуска, Дрю Моррисон, Барбара Гири, Старнс Ревели, Даг Монтойя, Келси Монтойя, Кэти Фармин

Описание: Недавно потерявшая родителей и брошенная парнем, Баблгам Тэдибэр переезжает из Канзаса в Альбукерке, Нью Мексико. Она отталкивает ухажеров, отрицает реальный мир и живет в своем собственном, в котором она осознает, что является персонажем фильма. Баблгам знает, как устроено кино, и пытается подвести свой фильм к хеппи-энду. Но, несмотря на все ее старания, любовь следует за ней по пятам и приближает жанр ее фильма к трагедии.

Качество: WEB-DL 720p
Формат: MKV

Видео: MPEG-4 AVC, 4130 Кбит/с, 1280x720
Аудио#1: Русский, (AC3, 2 ch, 384 Кбит/с)
скриншот  скриншот  скриншот  

Общее
Уникальный идентификатор : 177134828878813615598928044459648203311 (0x8542ED5749C4C86EAAD51406B411BA2F)
Полное имя : D:\Pulling.Push.Doors.2017.P.WEB-DL.72Op.mkv
Формат : Matroska
Версия формата : Version 2
Размер файла : 2,76 Гбайт
Продолжительность : 1 ч. 25 м.
Режим общего битрейта : Переменный
Общий поток : 4606 Кбит/сек
Дата кодирования : UTC 2019-04-03 20:08:22
Программа кодирования : mkvmerge v8.3.0 ('Over the Horizon') 64bit
Библиотека кодирования : libebml v1.3.1 + libmatroska v1.4.2

Видео
Идентификатор : 1
Формат : AVC
Формат/Информация : Advanced Video Codec
Профиль формата : High@L4.1
Параметр CABAC формата : Да
Параметр RefFrames формата : 4 кадра
Идентификатор кодека : V_MPEG4/ISO/AVC
Продолжительность : 1 ч. 25 м.
Вид битрейта : Переменный
Битрейт : 4130 Кбит/сек
Максимальный битрейт : 5000 Кбит/сек
Ширина : 1280 пикселей
Высота : 720 пикселей
Соотношение сторон : 16:9
Режим частоты кадров : Постоянный
Частота кадров : 23,976 (24000/1001) кадра/сек
Стандарт вещания : Component
Цветовое пространство : YUV
Субдискретизация насыщенности : 4:2:0
Битовая глубина : 8 бит
Тип развёртки : Прогрессивная
Бит/(Пиксели*Кадры) : 0.187
Размер потока : 2,48 Гбайт (90%)
Default : Да
Forced : Нет
Цветовой диапазон : Limited
Основные цвета : BT.709
Характеристики трансфера : BT.709
Коэффициенты матрицы : BT.709

Аудио
Идентификатор : 2
Формат : AC-3
Формат/Информация : Audio Coding 3
Расширение режима : CM (complete main)
Параметр Endianness формата : Big
Идентификатор кодека : A_AC3
Продолжительность : 1 ч. 25 м.
Вид битрейта : Постоянный
Битрейт : 384 Кбит/сек
Каналы : 2 канала
Расположение каналов : Front: L R
Частота : 48,0 КГц
Частота кадров : 31,250 кадров/сек (1536 spf)
Метод сжатия : С потерями
Размер потока : 236 Мбайт (8%)
Default : Да
Forced : Нет

pb.wtf



Скачать Стучась в закрытые двери через торрент https://c.radikal.ru/c00/1904/08/130652a930c0.jpg Скачать фильм Стучась в закрытые двери через торрент бесплантно в хорошем качестве Описание: Недавно потерявшая родителей и брошенная парнем, Баблгам Тэдибэр переезжает из Канзаса в Альбукерке, Нью Мексико. Она отталкивает ... 10 10 2
Торрент: Зарегистрирован [2019-04-04 01:52] · скачан: 1 раз
Статус: T временная
Размер: 2.76 GB
Как cкачать? Как скачать Стучась в закрытые двери через торрент | qTorrent

% Раздел Тема Автор DL S | L
T Фильмы (мультфильмы) cо спонсором показа (Новинки AVI/MKV) [ 1.37 GB ] Стучась в закрытые двери / Pulling Push Doors [2017 WEB-DLRip] MVO ["Синема УС"] bober100 Скачать
1 | 0

28-11-2019 20:33  

Отключить всю рекламу на сайте

    Дорогой пользователь! Огромная просьба, поблагодарите релизера, оцените раздачу и оставьте свои комментарий, если Вы скачали Стучась в закрытые двери через торрент бесплатно! Внесите свою лепту в развитие PiratBit!
    Комментировать посты могут только пользователи прошедшие не сложную регистрацию
    Показать сообщения:    

    Стучась в закрытые двери через торрент
    Скачать бесплатно Стучась в закрытые двери
    Стучась в закрытые двери скачать торрент
    Стучась в закрытые двери смотреть онлайн
    Cкачать фильм Стучась в закрытые двери бесплатно
    Стучась в закрытые двери скачать торрент в хорошем качестве
    Стучась в закрытые двери смотреть онлайн бесплатно в хорошем качестве


    Вы не можете начинать темы
    Вы не можете отвечать на сообщения
    Вы не можете редактировать свои сообщения
    Вы не можете удалять свои сообщения
    Вы не можете голосовать в опросах
    Вы не можете прикреплять файлы к сообщениям
    Вы можете скачивать файлы