Ссылка на приватное зеркало нашего сайта всего за 1$. Внимание количество ограничено!!!

2 сезон

iTunes

1 сезон

1

2 сезон

2 сезон

iTunes

1 сезон

RePack

30

Ultimate

ВАЖНО

ИГРА 18+

pack

RePack

MK11
pack

Забери бонус

RePack

jed

!!Акция!!

Alien_Rage

RePack

fifa19

RePack

Assassins Creed: Odyssey

RePack

NEED FOR SPEED™ PAYBACK

4 сезон

9 сезон

Бесстыжие 9 сезон

Все сериалы

все сериалы на PB.wtf

RePack

FAR CRY 5
  

Багровая мята / Peppermint (Пьер Морель) [2018, боевик, триллер, драма, BD Remux 1080p] 2xAVO+DUB [Лицензия] pb.wtf

Багровая мята через торрент pb.wtf

Размер: 31.7 GB | Добавлен: 1 год 7 мес. назад | Торрент скачан:17 раз
Скачать  

04-04-2019 02:01 Багровая мята Скачать торрент  

Багровая мята / Peppermint«У каждой мести свой вкус и цвет»
Год выпуска: 2018
Страна: США, Гонконг
Жанр: боевик, триллер, драма
Продолжительность: 01:42:02
Перевод:

#1: Дублированный | Лицензия
#2: Авторский | Яроцкий
#3: Авторский | Немахов

Субтитры: Русские (Full), английские

Режиссер: Пьер Морель

rating

В ролях:

Дженнифер Гарнер, Джон Галлахер мл., Джон Ортис, Хуан Пабло Раба, Энни Илонзе, Джефф Хефнер, Кэйли Флеминг, Эдди Шин, Метод Мэн, Тайсон Риттер

Описание:

Когда система закрывает глаза на убийство ее семьи, она решает вершить справедливость сама: очистить город от преступников и продажных полицейских, чтобы отомстить за любимых. Ведь месть - это блюдо, которое подают холодным. Холодным, как мороженое со вкусом мяты, которое так любила ее единственная дочь.

Качество: BD Remux 1080p
Формат: MKV

Видео: MPEG-4 AVC, 1920x804, 6263 Кbit/s, 23.976 fps
Аудио#1: 48 kHz, DTS-HD MA, 5.1, 3701 Kbps | Лицензия | RUS |
Аудио#2: 48 kHz, DTS-HD MA, 7.1, 4587 Kbps | Яроцкий | RUS |
b]Аудио#3: 48 kHz, AC3, 5.1, 384 Kbps | Немахов | RUS |
Аудио#4: 48 kHz, DTS-HD MA, 7.1, 4546 Kbps | Оригинал | ENG |
скриншот  скриншот  скриншот  скриншот  скриншот  

General
Unique ID : 317859819956838659225641091757792039447 (0xEF219314DF64E49464A7D0E8F6641217)
Complete name : D:Video111Peppermint.2018.D.AVO.BDREMUX.1080p.seleZen.mkv
Format : Matroska
Format version : Version 4
File size : 31.7 GiB
Duration : 1 h 42 min
Overall bit rate mode : Variable
Overall bit rate : 44.5 Mb/s
Movie name : Peppermint 2018 from селезень
Encoded date : UTC 2019-04-07 04:12:44
Writing application : mkvmerge v32.0.0 ('Astral Progressions') 64-bit
Writing library : libebml v1.3.7 + libmatroska v1.5.0

Video
ID : 1
Format : AVC
Format/Info : Advanced Video Codec
Format profile : High@L4.1
Format settings : CABAC / 4 Ref Frames
Format settings, CABAC : Yes
Format settings, ReFrames : 4 frames
Format settings, GOP : M=3, N=12
Codec ID : V_MPEG4/ISO/AVC
Duration : 1 h 42 min
Bit rate mode : Variable
Bit rate : 31.2 Mb/s
Maximum bit rate : 35.0 Mb/s
Width : 1 920 pixels
Height : 1 080 pixels
Display aspect ratio : 16:9
Frame rate mode : Constant
Frame rate : 23.976 (24000/1001) FPS
Color space : YUV
Chroma subsampling : 4:2:0
Bit depth : 8 bits
Scan type : Progressive
Bits/(Pixel*Frame) : 0.628
Stream size : 22.3 GiB (70%)
Language : English
Default : Yes
Forced : No

Audio #1
ID : 2
Format : DTS XLL
Format/Info : Digital Theater Systems
Commercial name : DTS-HD Master Audio
Codec ID : A_DTS
Duration : 1 h 42 min
Bit rate mode : Variable
Bit rate : 3 701 kb/s
Channel(s) : 6 channels
Channel layout : C L R Ls Rs LFE
Sampling rate : 48.0 kHz
Frame rate : 93.750 FPS (512 SPF)
Bit depth : 24 bits
Compression mode : Lossless
Stream size : 2.64 GiB (8%)
Title : Dub [License]
Language : Russian
Default : Yes
Forced : Yes

Audio #2
ID : 3
Format : DTS ES XLL
Format/Info : Digital Theater Systems
Commercial name : DTS-HD Master Audio
Codec ID : A_DTS
Duration : 1 h 42 min
Bit rate mode : Variable
Bit rate : 4 587 kb/s
Channel(s) : 8 channels
Channel layout : C L R Ls Rs LFE Lb Rb
Sampling rate : 48.0 kHz
Frame rate : 93.750 FPS (512 SPF)
Bit depth : 24 bits
Compression mode : Lossless
Stream size : 3.27 GiB (10%)
Title : AVO [Kyberpank]
Language : Russian
Default : No
Forced : No

Audio #3
ID : 4
Format : AC-3
Format/Info : Audio Coding 3
Commercial name : Dolby Digital
Codec ID : A_AC3
Duration : 1 h 42 min
Bit rate mode : Constant
Bit rate : 384 kb/s
Channel(s) : 6 channels
Channel layout : L R C LFE Ls Rs
Sampling rate : 48.0 kHz
Frame rate : 31.250 FPS (1536 SPF)
Bit depth : 16 bits
Compression mode : Lossy
Stream size : 280 MiB (1%)
Title : AVO [Nemahov]
Language : Russian
Service kind : Complete Main
Default : No
Forced : No

Audio #4
ID : 5
Format : DTS XLL
Format/Info : Digital Theater Systems
Commercial name : DTS-HD Master Audio
Codec ID : A_DTS
Duration : 1 h 42 min
Bit rate mode : Variable
Bit rate : 4 546 kb/s
Channel(s) : 8 channels
Channel layout : C L R LFE Lb Rb Lss Rss
Sampling rate : 48.0 kHz
Frame rate : 93.750 FPS (512 SPF)
Bit depth : 24 bits
Compression mode : Lossless
Stream size : 3.24 GiB (10%)
Title : Original
Language : English
Default : No
Forced : No

Text #1
ID : 6
Format : UTF-8
Codec ID : S_TEXT/UTF8
Codec ID/Info : UTF-8 Plain Text
Duration : 1 h 33 min
Bit rate : 73 b/s
Count of elements : 993
Stream size : 50.3 KiB (0%)
Title : Full
Language : Russian
Default : Yes
Forced : Yes

Text #2
ID : 7
Format : UTF-8
Codec ID : S_TEXT/UTF8
Codec ID/Info : UTF-8 Plain Text
Duration : 1 h 40 min
Bit rate : 52 b/s
Count of elements : 1305
Stream size : 38.9 KiB (0%)
Title : SDH
Language : English
Default : No
Forced : No

Menu
00:00:00.000 : en:00:00:00.000
00:05:49.474 : en:00:05:49.474
00:09:23.855 : en:00:09:23.855
00:14:09.599 : en:00:14:09.599
00:20:52.001 : en:00:20:52.001
00:26:34.593 : en:00:26:34.593
00:30:55.312 : en:00:30:55.312
00:35:11.693 : en:00:35:11.693
00:40:33.097 : en:00:40:33.097
00:45:56.796 : en:00:45:56.796
00:51:05.229 : en:00:51:05.229
00:56:15.872 : en:00:56:15.872
01:01:48.663 : en:01:01:48.663
01:05:45.108 : en:01:05:45.108
01:11:02.008 : en:01:11:02.008
01:16:12.401 : en:01:16:12.401
01:19:50.244 : en:01:19:50.244
01:25:28.832 : en:01:25:28.832
01:30:58.244 : en:01:30:58.244
01:35:04.574 : en:01:35:04.574

pb.wtf



Скачать Багровая мята через торрент http://img14.lostpic.net/2018/12/09/30fc53ab88e4f8c154e578e0746c7cd0.jpg Скачать фильм Багровая мята через торрент бесплантно в хорошем качестве Описание: Когда система закрывает глаза на убийство ее семьи, она решает вершить справедливость сама: очистить город от преступников и ... 10 10 4
Info! Золотая раздача, скачанное не засчитывается.
Торрент: Зарегистрирован [2019-04-07 04:29] · скачан: 17 раз
Статус: √ проверено
Размер: 31.7 GB
Как cкачать? Как скачать Багровая мята через торрент | qTorrent

% Раздел Тема Автор DL S | L
Фильмы 2018 [DVDrip, WEB-DLRip, HDrip] (DUB, MVO) [ 1.46 GB ] Багровая мята / Peppermint [2018 BDRip] - [] Twi7ter Скачать
2 | 0
Фильмы [HD 720p, 1080p] (Хороший звук DUB, MVO) [ 4.04 GB ] Багровая мята / Peppermint [2018 BDRip 720p] DUB [] bober100 Скачать
2 | 0
Фильмы 2018 [DVDrip, WEB-DLRip, HDrip] (DUB, MVO) [ 1.93 GB ] Багровая мята / Peppermint [2018 BDRip-AVC] DUB [] bober100 Скачать
1 | 0
Фильмы [HD 720p, 1080p] (Хороший звук DUB, MVO) [ 6.45 GB ] Багровая мята / Peppermint [2018 BDRip 1080p] DUB [] bober100 Скачать
1 | 0
Фильмы (Blu-ray, BD-Remux, HDDVD) [ 31.72 GB ] Багровая мята / Peppermint [2018 Blu-ray 1080p] [Rus Transfer] DUB [] bober100 Скачать
1 | 0
Фильмы (HD 720p, 1080p) (48-60 fps) [ 11.97 GB ] Багровая мята / Peppermint [2018 BDRip 1080p 60fps] sheker187 Скачать
1 | 0
Фильмы (WEB-DL 720p, 1080p) [ 3.79 GB ] Багровая мята / Peppermint [2018 WEB-DL 1080p] bober100 Скачать
4 | 0

28-11-2019 20:33  

Отключить всю рекламу на сайте

    Дорогой пользователь! Огромная просьба, поблагодарите релизера, оцените раздачу и оставьте свои комментарий, если Вы скачали Багровая мята через торрент бесплатно! Внесите свою лепту в развитие PiratBit!
    Комментировать посты могут только пользователи прошедшие не сложную регистрацию
    Показать сообщения:    

    Багровая мята через торрент
    Скачать бесплатно Багровая мята
    Багровая мята скачать торрент
    Багровая мята смотреть онлайн
    Cкачать фильм Багровая мята бесплатно
    Багровая мята скачать торрент в хорошем качестве
    Багровая мята смотреть онлайн бесплатно в хорошем качестве


    Вы не можете начинать темы
    Вы не можете отвечать на сообщения
    Вы не можете редактировать свои сообщения
    Вы не можете удалять свои сообщения
    Вы не можете голосовать в опросах
    Вы не можете прикреплять файлы к сообщениям
    Вы можете скачивать файлы