новый адрес
Ссылка на приватное зеркало всего за 1$. Внимание количество ограничено!!!

iTunes

1+1

iTunes

мы

WEB-DL

1

iTunes

Чернобыль

iTunes

Ральф против интернета

Лицензия

ПШазам

Лицензия

Оно 2

Лицензия

30
pack

Вам бонус

ВАЖНО

!!Акция!!

Alien_RageХит недели

RePack

Resident Evil 21

ИГРА 18+

pack

RePack

jed

!!Акция!!

Alien_Rage

RePack

fifa19

RePack

Assassins Creed: Odyssey

RePack

NEED FOR SPEED™ PAYBACK

3 сезон

9 сезон

Бесстыжие 9 сезон

Все сериалы

все сериалы на PB.wtf

RePack

FAR CRY 5
Ребята, катастрофически не хватает 1900р. для оплаты серверов за Октябрь (всвязи с блокировками трафик упал в 3 раза), 1-2р., выручайте.
  

За бортом / Overboard (Роб Гринберг) [2018, комедия, BDRip-AVC] Дубляж - [Лицензия] - ExKinoRay pb.wtf

За бортом через торрент pb.wtf

Раздают: 1 [ 0 KB/s ]
Размер: 1.45 GB | Добавлен: 8 мес. назад | Торрент скачан:92 раза
Скачать  

04-04-2019 04:40 За бортом Скачать торрент  

Информация о фильме
Название: За бортом
Оригинальное название: Overboard
Год выпуска: 2018
Жанр: Комедия
Режиссер: Роб Гринберг
В ролях: Анна Фэрис, Эухенио Дербес, Джон Ханна, Ева Лонгория, Эмили Мэддисон, Свузи Кёрц, Джош Сегарра, Мэл Родриге, Селеста Зиглер, Аливия Элин Линд

Описание:
Леонардо, капризный плейбой-миллионер, однажды вываливается за борт своей яхты. После падения он теряет память, попадает в больницу, а разносчица пиццы Кейт, страстно желая отомстить парню за хамство, уверяет его, что он — её муж и отец троих детей. Чем обернется эта авантюра? И сколько шагов от ненависти до любви?

rating

Страна: США
Студия: Pantelion Films, 3Pas Studios, Metro-Goldwyn-Mayer (MGM)
Продолжительность: 01:52:18
Перевод: Дублированный | Лицензия
Субтитры: Английские

Формат: MKV
Качество: BDRip-AVC
Видео: MPEG-4 AVC, 720x302 (2.40:1), 23.976 fps, ~ 1397 kbps avg, 0.268 bit/pixel
Аудио: 48 kHz, AC3, 5.1, 448 Kbps | RUS |
General
Unique ID : 242347822847563594042829962760767375830 (0xB6527E2E8ED44A16B2037747FCFF89D6)
Complete name : D:\Overboard.2018.BDRip.AVC.ExKinoRay.mkv
Format : Matroska
Format version : Version 2
File size : 1.45 GiB
Duration : 1 h 52 min
Overall bit rate : 1 846 kb/s
Movie name : Overboard 2018 from ExKinoRay
Encoded date : UTC 2019-04-04 03:10:10
Writing application : mkvmerge v5.6.0 ('Kenya Kane') built on May 27 2012 16:44:04
Writing library : libebml v1.2.3 + libmatroska v1.3.0

Video
ID : 1
Format : AVC
Format/Info : Advanced Video Codec
Format profile : High@L4.1
Format settings, CABAC : Yes
Format settings, ReFrames : 12 frames
Codec ID : V_MPEG4/ISO/AVC
Duration : 1 h 52 min
Bit rate : 1 397 kb/s
Width : 720 pixels
Height : 302 pixels
Display aspect ratio : 2.40:1
Frame rate mode : Constant
Frame rate : 23.976 (24000/1001) FPS
Original frame rate : 23.976 (23976/1000) FPS
Color space : YUV
Chroma subsampling : 4:2:0
Bit depth : 8 bits
Scan type : Progressive
Bits/(Pixel*Frame) : 0.268
Stream size : 1.07 GiB (74%)
Title : Enigma
Writing library : x264 core 152 r2851 ba24899
Encoding settings : cabac=1 / ref=12 / deblock=1:-2:-2 / analyse=0x3:0x113 / me=umh / subme=10 / psy=1 / psy_rd=1.00:0.10 / mixed_ref=1 / me_range=32 / chroma_me=1 / trellis=2 / 8x8dct=1 / cqm=0 / deadzone=21,11 / fast_pskip=0 / chroma_qp_offset=-3 / threads=9 / lookahead_threads=2 / sliced_threads=0 / nr=0 / decimate=0 / interlaced=0 / bluray_compat=0 / constrained_intra=0 / bframes=12 / b_pyramid=2 / b_adapt=2 / b_bias=0 / direct=3 / weightb=1 / open_gop=0 / weightp=2 / keyint=240 / keyint_min=23 / scenecut=40 / intra_refresh=0 / rc_lookahead=40 / rc=2pass / mbtree=0 / bitrate=1397 / ratetol=1.0 / qcomp=0.60 / qpmin=0 / qpmax=51 / qpstep=4 / cplxblur=20.0 / qblur=0.5 / vbv_maxrate=50000 / vbv_bufsize=62500 / nal_hrd=none / filler=0 / ip_ratio=1.30 / pb_ratio=1.20 / aq=3:0.90
Default : Yes
Forced : No
Color range : Limited
Color primaries : BT.709
Transfer characteristics : BT.709
Matrix coefficients : BT.709

Audio
ID : 2
Format : AC-3
Format/Info : Audio Coding 3
Mode extension : CM (complete main)
Format settings, Endianness : Big
Codec ID : A_AC3
Duration : 1 h 52 min
Bit rate mode : Constant
Bit rate : 448 kb/s
Channel(s) : 6 channels
Channel positions : Front: L C R, Side: L R, LFE
Sampling rate : 48.0 kHz
Frame rate : 31.250 FPS (1536 spf)
Compression mode : Lossy
Stream size : 360 MiB (24%)
Title : Dub (License)
Language : Russian
Default : Yes
Forced : No

Text
ID : 3
Format : UTF-8
Codec ID : S_TEXT/UTF8
Codec ID/Info : UTF-8 Plain Text
Language : English
Default : No
Forced : No

Menu
00:00:00.000 : en:Chapter 1
00:06:30.139 : en:Chapter 2
00:12:33.461 : en:Chapter 3
00:17:43.562 : en:Chapter 4
00:23:38.250 : en:Chapter 5
00:28:46.641 : en:Chapter 6
00:36:22.722 : en:Chapter 7
00:42:06.357 : en:Chapter 8
00:48:10.012 : en:Chapter 9
00:54:41.861 : en:Chapter 10
00:59:12.298 : en:Chapter 11
01:05:19.707 : en:Chapter 12
01:09:29.665 : en:Chapter 13
01:16:00.764 : en:Chapter 14
01:22:38.370 : en:Chapter 15
01:27:33.456 : en:Chapter 16
Релиз от:

Автор релиза: pb.wtf



Скачать За бортом через торрент https://d.radikal.ru/d04/1807/e9/0d6e5b8e5907.png Скачать фильм За бортом через торрент бесплантно в хорошем качестве Описание: Леонардо, капризный плейбой-миллионер, однажды вываливается за борт своей яхты. После падения он теряет память, попадает в ... 10 10 2
Info! Золотая раздача, скачанное не засчитывается.
Торрент: Зарегистрирован [2019-04-04 04:40] · скачан: 92 раз
Статус: √ проверено
Размер: 1.45 GB
Как cкачать? Как скачать За бортом через торрент | qTorrent

% Раздел Тема Автор DL S | L
Фильмы 2018 [DVDrip, WEB-DLRip, HDrip] (DUB, MVO) [ 1.4 GB ] За бортом / Overboard [2018 BDRip-AVC] - [] - ExKinoRay Enigma2010 Скачать
8 | 0

28-11-2019 20:33  

Отключить всю рекламу на сайте

04-04-2019 04:53 За бортом Скачать торрент  

всё нормально.но вот 2-й скриншот... pb.wtf



    Дорогой пользователь! Огромная просьба, поблагодарите релизера, оцените раздачу и оставьте свои комментарий, если Вы скачали За бортом через торрент бесплатно! Внесите свою лепту в развитие PiratBit!
    Комментировать посты могут только пользователи прошедшие не сложную регистрацию
    Показать сообщения:    

    За бортом через торрент
    Скачать бесплатно За бортом
    За бортом скачать торрент
    За бортом смотреть онлайн
    Cкачать фильм За бортом бесплатно
    За бортом скачать торрент в хорошем качестве
    За бортом смотреть онлайн бесплатно в хорошем качестве


    Вы не можете начинать темы
    Вы не можете отвечать на сообщения
    Вы не можете редактировать свои сообщения
    Вы не можете удалять свои сообщения
    Вы не можете голосовать в опросах
    Вы не можете прикреплять файлы к сообщениям
    Вы можете скачивать файлы