Ссылка на приватное зеркало всего за 1$. Внимание количество ограничено!!!

OK

1+1

iTunes

мы

OK

1

WEB-DLRip

Джокер

Пифагор

Ведьмак / The Witcher сериал

iTunes

ПШазам

ОК

Оно 2

iTunes

30
pack

Вам бонус

ВАЖНО

!!Акция!!

Alien_RageХит недели

RePack

Resident Evil 21

ИГРА 18+

pack

RePack

jed

RePack

fifa19

RePack

Assassins Creed: Odyssey

RePack

NEED FOR SPEED™ PAYBACK

4 сезон

9 сезон

Бесстыжие 9 сезон

Все сериалы

все сериалы на PB.wtf

RePack

FAR CRY 5
  

Незапланированная / Unplanned (Чак Конзелман, Кэри Соломон) [2019, драма, TS 720p] MVO [КОЛОБОК] pb.wtf

Незапланированная через торрент pb.wtf

Размер: 2.97 GB | Добавлен: 9 мес. назад | Торрент скачан:5 раз
Скачать  

04-04-2019 05:08 Незапланированная Скачать торрент  

Незапланированная / Unplanned Год выпуска: 2019
Страна: США
Жанр: драма
Продолжительность: 01:45:07
Перевод: Любительский (многоголосый) | КОЛОБОК
Субтитры: отсутствуют

Режиссер: Чак Конзелман, Кэри Соломон

rating

В ролях:

Эшли Брэтчер, Брукс Райан, Робия Ламорт, Джаред Лотз, Эмма Эль Робертс, Робин Уенделл, Роберт Томасон, Кристина Тонер, Сара Эрнандез, Маура Корсини

Описание:

Как один из самых молодых директоров клиники «Планируемое родительство» в стране, Эбби Джонсон участвовала в более чем 22 000 абортов и консультировала бесчисленное количество женщин в отношении их репродуктивного выбора. Ее страсть, окружающая право женщины на выбор, привела ее к тому, что она стала представителем «Планируемого родительства», борясь за принятие законодательства по той причине, в которую она так глубоко верила.

Качество: TS 720p
Формат: MKV

Видео: h.264,3 582 Кбит/с, 1280x536
Аудио: Русский, (AC3, 2 ch, 384 Кбит/с)
скриншот  скриншот  скриншот  

Общее
Уникальный идентификатор : 179014236470202982546777409054156038987 (0x86ACE34A11BF0CC1BDE7D39B6D2CA34B)
Полное имя : D:\Unplanned.2019.Pk.TS.72Op.mkv
Формат : Matroska
Версия формата : Version 2
Размер файла : 2,97 Гбайт
Продолжительность : 1 ч. 45 м.
Режим общего битрейта : Переменный
Общий поток : 4047 Кбит/сек
Дата кодирования : UTC 2019-04-03 13:14:00
Программа кодирования : mkvmerge v8.3.0 ('Over the Horizon') 64bit
Библиотека кодирования : libebml v1.3.1 + libmatroska v1.4.2

Видео
Идентификатор : 1
Формат : AVC
Формат/Информация : Advanced Video Codec
Профиль формата : High@L4.1
Параметр CABAC формата : Да
Параметр RefFrames формата : 4 кадра
Идентификатор кодека : V_MPEG4/ISO/AVC
Продолжительность : 1 ч. 45 м.
Вид битрейта : Переменный
Битрейт : 3582 Кбит/сек
Максимальный битрейт : 4000 Кбит/сек
Ширина : 1280 пикселей
Высота : 536 пикселей
Соотношение сторон : 2,40:1
Режим частоты кадров : Постоянный
Частота кадров : 23,976 (24000/1001) кадра/сек
Стандарт вещания : Component
Цветовое пространство : YUV
Субдискретизация насыщенности : 4:2:0
Битовая глубина : 8 бит
Тип развёртки : Прогрессивная
Бит/(Пиксели*Кадры) : 0.218
Размер потока : 2,63 Гбайт (89%)
Default : Да
Forced : Нет
Цветовой диапазон : Limited
Основные цвета : BT.709
Характеристики трансфера : BT.709
Коэффициенты матрицы : BT.709

Аудио
Идентификатор : 2
Формат : AC-3
Формат/Информация : Audio Coding 3
Расширение режима : CM (complete main)
Параметр Endianness формата : Big
Идентификатор кодека : A_AC3
Продолжительность : 1 ч. 45 м.
Вид битрейта : Постоянный
Битрейт : 384 Кбит/сек
Каналы : 2 канала
Расположение каналов : Front: L R
Частота : 48,0 КГц
Частота кадров : 31,250 кадров/сек (1536 spf)
Метод сжатия : С потерями
Размер потока : 289 Мбайт (9%)
Default : Да
Forced : Нет

pb.wtf



Скачать Незапланированная через торрент https://d.radikal.ru/d09/1904/5f/42ff37384244.jpg Скачать фильм Незапланированная через торрент бесплантно в хорошем качестве Описание: Как один из самых молодых директоров клиники «Планируемое родительство» в стране, Эбби Джонсон участвовала в более чем 22 000 ... 10 10 3
Торрент: Зарегистрирован [2019-04-04 05:08] · скачан: 5 раз
Статус: T временная
Размер: 2.97 GB
Как cкачать? Как скачать Незапланированная через торрент | qTorrent

% Раздел Тема Автор DL S | L
T Фильмы (мультфильмы) cо спонсором показа (Новинки AVI/MKV) [ 1.37 GB ] Незапланированная / Unplanned [2019 TS] MVO [КОЛОБОК] bober100 Скачать
1 | 0
Гонзо [ 853 MB ] Незапланированные Оргии 19 / Unplanned Orgies 19 [2014 Gonzo DVDRip Оригинал] 19alexei87 Скачать
1 | 0
Гонзо [ 1.31 GB ] Незапланированные оргии 17 / Unplanned Orgies 17 [2013 All Sex Oral Anal Gonzo Legal Teen GroupSex DVDRip-AVC Оригинал] sheker187 Скачать
1 | 0
Гонзо [ 1.33 GB ] Незапланированные оргии 15 / Unplanned Orgies 15 [2013 All Sex Oral Anal Gonzo GroupSex Toys Orgy DVDRip-AVC Оригинал] sheker187 Скачать
1 | 0

28-11-2019 20:33  

Отключить всю рекламу на сайте

    Дорогой пользователь! Огромная просьба, поблагодарите релизера, оцените раздачу и оставьте свои комментарий, если Вы скачали Незапланированная через торрент бесплатно! Внесите свою лепту в развитие PiratBit!
    Комментировать посты могут только пользователи прошедшие не сложную регистрацию
    Показать сообщения:    

    Незапланированная через торрент
    Скачать бесплатно Незапланированная
    Незапланированная скачать торрент
    Незапланированная смотреть онлайн
    Cкачать фильм Незапланированная бесплатно
    Незапланированная скачать торрент в хорошем качестве
    Незапланированная смотреть онлайн бесплатно в хорошем качестве


    Вы не можете начинать темы
    Вы не можете отвечать на сообщения
    Вы не можете редактировать свои сообщения
    Вы не можете удалять свои сообщения
    Вы не можете голосовать в опросах
    Вы не можете прикреплять файлы к сообщениям
    Вы можете скачивать файлы