Ссылка на приватное зеркало всего за 1$. Внимание количество ограничено!!!

OK

1+1

iTunes

мы

OK

1

WEB-DLRip

Джокер

Пифагор

Ведьмак / The Witcher сериал

iTunes

ПШазам

ОК

Оно 2

iTunes

30
pack

Вам бонус

ВАЖНО

!!Акция!!

Alien_RageХит недели

RePack

Resident Evil 21

ИГРА 18+

pack

RePack

jed

RePack

fifa19

RePack

Assassins Creed: Odyssey

RePack

NEED FOR SPEED™ PAYBACK

4 сезон

9 сезон

Бесстыжие 9 сезон

Все сериалы

все сериалы на PB.wtf

RePack

FAR CRY 5
  

Одни в космосе / Ensamma i rymden / Alone in Space (Тед Кьельссон) [2018, Фантастика, семейный, BDRip 720p] MVO ["Синема УС"] pb.wtf

Одни в космосе через торрент pb.wtf

Размер: 4.32 GB | Добавлен: 9 мес. назад | Торрент скачан:109 раз
Скачать  

04-04-2019 05:21 Одни в космосе Скачать торрент  

Одни в космосе / Ensamma i rymden / Alone in Space Год выпуска: 2018
Страна: Швеция
Жанр: Фантастика, семейный
Продолжительность: 01:24:07
Перевод: Любительский (многоголосый) | "Синема УС"
Субтитры: отсутствуют

Режиссер: Тед Кьельссон

rating

В ролях:

Элла Рэй Раппапорт, Данте Флейшандерл, Хенрик Столь, Мадлен Барвен Тролльвик, Хакан Бенгтссон, Алиетт Офейм, Ричард Сероваги, Ида Телин, Инга Авемо Ходелл, Жозефина Нильссен

Описание:

В недалеком будущем гигансткий космический корабль покидает землю и в поисках спасения отправляется на другую планету. На борту всего двое - 12-летняя Глэдис и ее младший братишка. Дети надеются однажды добраться до места, которое станет их новым домом, но всё меняется, когда что-то неизвестное врезается в их корабль - больше они не одни в космосе.

Качество: BDRip 720p
Формат: MKV

Видео: h.264,6 909 Кбит/с, 1280x536
Аудио: Русский (AC3, 2 ch, 448 Кбит/с)
скриншот  скриншот  скриншот  

Общее
Уникальный идентификатор : 204798352598245866555426454618766011237 (0x9A12BA5D1843F678AA0E5AC3646B6B65)
Полное имя : D:\Ensamma.i.rymden.2018.P.BDRip.72Op.mkv
Формат : Matroska
Версия формата : Version 2
Размер файла : 4,32 Гбайт
Продолжительность : 1 ч. 24 м.
Режим общего битрейта : Переменный
Общий поток : 7359 Кбит/сек
Дата кодирования : UTC 2019-04-03 16:39:44
Программа кодирования : mkvmerge v8.3.0 ('Over the Horizon') 64bit
Библиотека кодирования : libebml v1.3.1 + libmatroska v1.4.2

Видео
Идентификатор : 1
Формат : AVC
Формат/Информация : Advanced Video Codec
Профиль формата : High@L4.1
Параметр CABAC формата : Да
Параметр RefFrames формата : 4 кадра
Идентификатор кодека : V_MPEG4/ISO/AVC
Продолжительность : 1 ч. 24 м.
Вид битрейта : Переменный
Битрейт : 6909 Кбит/сек
Максимальный битрейт : 7600 Кбит/сек
Ширина : 1280 пикселей
Высота : 536 пикселей
Соотношение сторон : 2,40:1
Режим частоты кадров : Постоянный
Частота кадров : 23,976 (24000/1001) кадра/сек
Стандарт вещания : Component
Цветовое пространство : YUV
Субдискретизация насыщенности : 4:2:0
Битовая глубина : 8 бит
Тип развёртки : Прогрессивная
Бит/(Пиксели*Кадры) : 0.411
Размер потока : 3,97 Гбайт (92%)
Default : Да
Forced : Нет
Цветовой диапазон : Limited
Основные цвета : BT.709
Характеристики трансфера : BT.709
Коэффициенты матрицы : BT.709

Аудио
Идентификатор : 2
Формат : AC-3
Формат/Информация : Audio Coding 3
Расширение режима : CM (complete main)
Параметр Endianness формата : Big
Идентификатор кодека : A_AC3
Продолжительность : 1 ч. 24 м.
Вид битрейта : Постоянный
Битрейт : 448 Кбит/сек
Каналы : 2 канала
Расположение каналов : Front: L R
Частота : 48,0 КГц
Частота кадров : 31,250 кадров/сек (1536 spf)
Метод сжатия : С потерями
Размер потока : 270 Мбайт (6%)
Default : Да
Forced : Нет

pb.wtf



Скачать Одни в космосе через торрент https://b.radikal.ru/b29/1904/52/1dc3dd2997a9.jpg Скачать фильм Одни в космосе через торрент бесплантно в хорошем качестве Описание: В недалеком будущем гигансткий космический корабль покидает землю и в поисках спасения отправляется на другую планету. На борту ... 9.4 10 5
Торрент: Зарегистрирован [2019-04-04 05:21] · скачан: 109 раз
Статус: T временная
Размер: 4.32 GB
Как cкачать? Как скачать Одни в космосе через торрент | qTorrent

% Раздел Тема Автор DL S | L
T Фильмы (мультфильмы) cо спонсором показа (Новинки AVI/MKV) [ 1.37 GB ] Одни в космосе / Ensamma i rymden / Alone in Space [2018 HDRip] MVO ["Синема УС"] bober100 Скачать
1 | 0

28-11-2019 20:33  

Отключить всю рекламу на сайте

04-04-2019 05:42 Одни в космосе Скачать торрент  

Описание убило наповал "В недалеком будущем гигансткий космический корабль покидает землю и в поисках спасения отправляется на другую планету. На борту всего двое - 12-летняя Глэдис и ее младший братишка."pb.wtf



04-04-2019 06:58 Одни в космосе Скачать торрент  

На гигантском корабле всего двое?pb.wtf



21-04-2019 23:41 Одни в космосе Скачать торрент  

инцест дело семейноеpb.wtf



    Дорогой пользователь! Огромная просьба, поблагодарите релизера, оцените раздачу и оставьте свои комментарий, если Вы скачали Одни в космосе через торрент бесплатно! Внесите свою лепту в развитие PiratBit!
    Комментировать посты могут только пользователи прошедшие не сложную регистрацию
    Показать сообщения:    

    Одни в космосе через торрент
    Скачать бесплатно Одни в космосе
    Одни в космосе скачать торрент
    Одни в космосе смотреть онлайн
    Cкачать фильм Одни в космосе бесплатно
    Одни в космосе скачать торрент в хорошем качестве
    Одни в космосе смотреть онлайн бесплатно в хорошем качестве


    Вы не можете начинать темы
    Вы не можете отвечать на сообщения
    Вы не можете редактировать свои сообщения
    Вы не можете удалять свои сообщения
    Вы не можете голосовать в опросах
    Вы не можете прикреплять файлы к сообщениям
    Вы можете скачивать файлы