Marvel's Avengers Deluxe Edition (супер цена) 159р. Внимание количество ограничено!!!

2 сезон

iTunes

iTunes

1

iTunes

iTunes

iTunes

WEBRip

iTunes

30
pack

Новость дня

ВАЖНО

!!Акция!!

Alien_RageХит недели

RePack

Horizon Zero Dawn

ИГРА 18+

pack

RePack

jed

!!Акция!!

Alien_Rage

RePack

fifa19

RePack

Assassins Creed: Odyssey

RePack

NEED FOR SPEED™ PAYBACK

4 сезон

9 сезон

Бесстыжие 9 сезон

Все сериалы

все сериалы на PB.wtf

RePack

FAR CRY 5
  

Близкие незнакомцы / Wanbyeokhan tain (Ли Джэ-гю) [2018, драма, комедия, WEB-DL 720p] MVO [КОЛОБОК] pb.wtf

Близкие незнакомцы через торрент pb.wtf

Размер: 4.68 GB | Добавлен: 1 год 5 мес. назад | Торрент скачан:9 раз
Скачать  

04-04-2019 05:43 Близкие незнакомцы Скачать торрент  

Близкие незнакомцы / Wanbyeokhan tainГод выпуска: 2018
Страна: Корея Южная
Жанр: драма, комедия
Продолжительность: 01:57:01
Перевод: Любительский (многоголосый) | КОЛОБОК
Субтитры: отсутствуют

Режиссер: Ли Джэ-гю

rating

В ролях:

Ю Хэ-джин, Чо Джин-ун, Ли Со-джин, Ём Джон-а, Ким Джи-су, Сон Ха-юн, Юн Гён-хо, Чиу, Ли Сун-джэ, Ли До-гён

Описание:

Компания старых друзей собирается на ужин. В процессе они решают сыграть в игру и один вечер ничего не скрывать друг от друга: на звонки отвечать по громкой связи и зачитывать вслух приходящие сообщения. Как вскоре выяснится, это была не самая лучшая идея.

Качество: WEB-DL 720p
Формат: MKV

Видео: h.264,5 340 Кбит/с, 1280x536
Аудио: Русский, (AC3, 2 ch, 384 Кбит/с)
скриншот  скриншот  скриншот  

Общее
Уникальный идентификатор : 210752778999135337949979606284831922542 (0x9E8D82404E3DA2BA8A2CBD932879996E)
Полное имя : D:\Intimate Strangers.2018.Pk.WEB-DL.72Op.mkv
Формат : Matroska
Версия формата : Version 2
Размер файла : 4,68 Гбайт
Продолжительность : 1 ч. 57 м.
Режим общего битрейта : Переменный
Общий поток : 5726 Кбит/сек
Дата кодирования : UTC 2019-04-03 16:32:10
Программа кодирования : mkvmerge v8.3.0 ('Over the Horizon') 64bit
Библиотека кодирования : libebml v1.3.1 + libmatroska v1.4.2

Видео
Идентификатор : 1
Формат : AVC
Формат/Информация : Advanced Video Codec
Профиль формата : High@L4.1
Параметр CABAC формата : Да
Параметр RefFrames формата : 4 кадра
Идентификатор кодека : V_MPEG4/ISO/AVC
Продолжительность : 1 ч. 57 м.
Вид битрейта : Переменный
Битрейт : 5340 Кбит/сек
Максимальный битрейт : 6000 Кбит/сек
Ширина : 1280 пикселей
Высота : 536 пикселей
Соотношение сторон : 2,40:1
Режим частоты кадров : Постоянный
Частота кадров : 23,976 (24000/1001) кадра/сек
Стандарт вещания : Component
Цветовое пространство : YUV
Субдискретизация насыщенности : 4:2:0
Битовая глубина : 8 бит
Тип развёртки : Прогрессивная
Бит/(Пиксели*Кадры) : 0.318
Размер потока : 4,27 Гбайт (91%)
Default : Да
Forced : Нет
Цветовой диапазон : Limited
Основные цвета : BT.709
Характеристики трансфера : BT.709
Коэффициенты матрицы : BT.709

Аудио
Идентификатор : 2
Формат : AC-3
Формат/Информация : Audio Coding 3
Расширение режима : CM (complete main)
Параметр Endianness формата : Big
Идентификатор кодека : A_AC3
Продолжительность : 1 ч. 57 м.
Вид битрейта : Постоянный
Битрейт : 384 Кбит/сек
Каналы : 2 канала
Расположение каналов : Front: L R
Частота : 48,0 КГц
Частота кадров : 31,250 кадров/сек (1536 spf)
Метод сжатия : С потерями
Размер потока : 321 Мбайт (7%)
Default : Да
Forced : Нет

pb.wtf



Скачать Близкие незнакомцы через торрент https://d.radikal.ru/d08/1904/02/97ebf156135c.jpg Скачать фильм Близкие незнакомцы через торрент бесплантно в хорошем качестве Описание: Компания старых друзей собирается на ужин. В процессе они решают сыграть в игру и один вечер ничего не скрывать друг от друга: на ... 10 10 2
Торрент: Зарегистрирован [2019-04-04 05:43] · скачан: 9 раз
Статус: T временная
Размер: 4.68 GB
Как cкачать? Как скачать Близкие незнакомцы через торрент | qTorrent

% Раздел Тема Автор DL S | L
T Фильмы (мультфильмы) cо спонсором показа (Новинки AVI/MKV) [ 1.46 GB ] Близкие незнакомцы / Wanbyeokhan tain [2018 WEB-DLRip] MVO [КОЛОБОК] bober100 Скачать
1 | 0

28-11-2019 20:33  

Отключить всю рекламу на сайте

04-04-2019 06:50 Близкие незнакомцы Скачать торрент  

помешались что ли все ? идеальные незнакомцы-громкая связь и это.pb.wtf



    Дорогой пользователь! Огромная просьба, поблагодарите релизера, оцените раздачу и оставьте свои комментарий, если Вы скачали Близкие незнакомцы через торрент бесплатно! Внесите свою лепту в развитие PiratBit!
    Комментировать посты могут только пользователи прошедшие не сложную регистрацию
    Показать сообщения:    

    Близкие незнакомцы через торрент
    Скачать бесплатно Близкие незнакомцы
    Близкие незнакомцы скачать торрент
    Близкие незнакомцы смотреть онлайн
    Cкачать фильм Близкие незнакомцы бесплатно
    Близкие незнакомцы скачать торрент в хорошем качестве
    Близкие незнакомцы смотреть онлайн бесплатно в хорошем качестве


    Вы не можете начинать темы
    Вы не можете отвечать на сообщения
    Вы не можете редактировать свои сообщения
    Вы не можете удалять свои сообщения
    Вы не можете голосовать в опросах
    Вы не можете прикреплять файлы к сообщениям
    Вы можете скачивать файлы