Ссылка на приватное зеркало всего за 1$. Внимание количество ограничено!!!

iTunes

iTunes

iTunes

1

iTunes

iTunes

iTunes

WEBRip

iTunes

30
pack

$ от Little Big

ВАЖНО

!!Акция!!

Alien_RageХит недели

RePack

Resident Evil 21

ИГРА 18+

pack

RePack

jed

!!Акция!!

Alien_Rage

RePack

fifa19

RePack

Assassins Creed: Odyssey

RePack

NEED FOR SPEED™ PAYBACK

4 сезон

9 сезон

Бесстыжие 9 сезон

Все сериалы

все сериалы на PB.wtf

RePack

FAR CRY 5
  

Кладбище домашних животных / Pet Graveyard (Ребекка Мэтьюз) [2019, приключения, WEB-DL 720p] MVO ["Синема УС"] pb.wtf

Кладбище домашних животных через торрент pb.wtf

Размер: 3.99 GB | Добавлен: 1 год 4 мес. назад | Торрент скачан:215 раз
Скачать  

04-04-2019 05:58 Кладбище домашних животных Скачать торрент  

Кладбище домашних животных / Pet Graveyard Год выпуска: 2019
Страна: Великобритания
Жанр: приключения
Продолжительность: 01:39:30
Перевод: Любительский (многоголосый) | "Синема УС"
Субтитры: отсутствуют

Режиссер: Ребекка Мэтьюз

rating

В ролях:

Рита Сиддики, Эндрю Холлингворт, Клэр-Мария Фокс, Херонимо Семи, Майк Келсон, Кейт Милнер Эванс, Хэтти Уиллоу, Дэвид Коттер, Джессика Отуол, Кейт Луш

Описание:

Мрачный Жнец в сопровождении своего питомца преследует группу подростков, которые провели эксперемент, чтобы увидеться со своими умершими близкими людьми.

Качество: WEB-DL 720p
Формат: MKV

Видео: h.264, 5 361 Кбит/с, 1280x544
Аудио: Русский, (AC3, 2 ch, 384 Кбит/с)
скриншот  скриншот  скриншот  

Общее
Уникальный идентификатор : 239397615569299706738465669684115230103 (0xB41A4DBB9CAB9108B9C7EED13EE34D97)
Полное имя : D:\Pet.Graveyard.2019.P.WEB-DL.72Op.mkv
Формат : Matroska
Версия формата : Version 2
Размер файла : 3,99 Гбайт
Продолжительность : 1 ч. 39 м.
Режим общего битрейта : Переменный
Общий поток : 5747 Кбит/сек
Дата кодирования : UTC 2019-04-03 16:35:11
Программа кодирования : mkvmerge v8.3.0 ('Over the Horizon') 64bit
Библиотека кодирования : libebml v1.3.1 + libmatroska v1.4.2

Видео
Идентификатор : 1
Формат : AVC
Формат/Информация : Advanced Video Codec
Профиль формата : High@L4.1
Параметр CABAC формата : Да
Параметр RefFrames формата : 4 кадра
Идентификатор кодека : V_MPEG4/ISO/AVC
Продолжительность : 1 ч. 39 м.
Вид битрейта : Переменный
Битрейт : 5361 Кбит/сек
Максимальный битрейт : 6000 Кбит/сек
Ширина : 1280 пикселей
Высота : 544 пикселя
Соотношение сторон : 2,35:1
Режим частоты кадров : Постоянный
Частота кадров : 23,976 (24000/1001) кадра/сек
Стандарт вещания : Component
Цветовое пространство : YUV
Субдискретизация насыщенности : 4:2:0
Битовая глубина : 8 бит
Тип развёртки : Прогрессивная
Бит/(Пиксели*Кадры) : 0.314
Размер потока : 3,65 Гбайт (91%)
Default : Да
Forced : Нет
Цветовой диапазон : Limited
Основные цвета : BT.709
Характеристики трансфера : BT.709
Коэффициенты матрицы : BT.709

Аудио
Идентификатор : 2
Формат : AC-3
Формат/Информация : Audio Coding 3
Расширение режима : CM (complete main)
Параметр Endianness формата : Big
Идентификатор кодека : A_AC3
Продолжительность : 1 ч. 39 м.
Вид битрейта : Постоянный
Битрейт : 384 Кбит/сек
Каналы : 2 канала
Расположение каналов : Front: L R
Частота : 48,0 КГц
Частота кадров : 31,250 кадров/сек (1536 spf)
Метод сжатия : С потерями
Размер потока : 273 Мбайт (7%)
Default : Да
Forced : Нет

pb.wtf



Скачать Кладбище домашних животных через торрент https://b.radikal.ru/b26/1904/27/68a5da01f9fc.jpg Скачать фильм Кладбище домашних животных через торрент бесплантно в хорошем качестве Описание: Мрачный Жнец в сопровождении своего питомца преследует группу подростков, которые провели эксперемент, чтобы увидеться со своими ... 6.3 10 12
Торрент: Зарегистрирован [2019-04-04 05:58] · скачан: 215 раз
Статус: T временная
Размер: 3.99 GB
Как cкачать? Как скачать Кладбище домашних животных через торрент | qTorrent

% Раздел Тема Автор DL S | L
T Фильмы (мультфильмы) cо спонсором показа (Новинки AVI/MKV) [ 1.36 GB ] Кладбище домашних животных / Pet Graveyard [2019 WEB-DLRip] MVO ["Синема УС"] bober100 Скачать
1 | 0

28-11-2019 20:33  

Отключить всю рекламу на сайте

04-04-2019 07:04 Кладбище домашних животных Скачать торрент  

Я думал это новый фильм который начался сегодня!pb.wtf



04-04-2019 08:44 Кладбище домашних животных Скачать торрент  

Астанавитесь, глупцы!, нас нае**ли, расходимся..pb.wtf



04-04-2019 09:48 Кладбище домашних животных Скачать торрент  

Сердце чуть не остановилось... pb.wtf



04-04-2019 13:46 Кладбище домашних животных Скачать торрент  

и у меня сердце екнуло.а это оказывается какая-то шляпа.pb.wtf



04-04-2019 16:52 Кладбище домашних животных Скачать торрент  

это не то кино которое в кинотеатре идет будьте осторожны это шляпаpb.wtf



04-04-2019 20:44 Кладбище домашних животных Скачать торрент  

Особенно второй скрин (Спецэффектно) Ожидания не оправдались, походу думали, что из-за названия будут качать, а потом смотреть pb.wtf



06-04-2019 07:58 Кладбище домашних животных Скачать торрент  

фуфлоpb.wtf



11-04-2019 17:36 Кладбище домашних животных Скачать торрент  

ЭТО НЕ ТОТ ФИЛЬМ !!!!!!!!! ПОЗОР РЕЛИЗЕРУ!!!!!pb.wtf



    Дорогой пользователь! Огромная просьба, поблагодарите релизера, оцените раздачу и оставьте свои комментарий, если Вы скачали Кладбище домашних животных через торрент бесплатно! Внесите свою лепту в развитие PiratBit!
    Комментировать посты могут только пользователи прошедшие не сложную регистрацию
    Показать сообщения:    

    Кладбище домашних животных через торрент
    Скачать бесплатно Кладбище домашних животных
    Кладбище домашних животных скачать торрент
    Кладбище домашних животных смотреть онлайн
    Cкачать фильм Кладбище домашних животных бесплатно
    Кладбище домашних животных скачать торрент в хорошем качестве
    Кладбище домашних животных смотреть онлайн бесплатно в хорошем качестве


    Вы не можете начинать темы
    Вы не можете отвечать на сообщения
    Вы не можете редактировать свои сообщения
    Вы не можете удалять свои сообщения
    Вы не можете голосовать в опросах
    Вы не можете прикреплять файлы к сообщениям
    Вы можете скачивать файлы