MEGA SALE -50% FORZA HORIZON 4 ULTIMATE+ВСЕ DLC+ОНЛАЙН всего за 599р. 299 руб. (супер цена). Внимание количество ограничено!!!

iTunes

1+1

iTunes

мы

iTunes

1

iTunes

Чернобыль

1 сезон

Ральф против интернета

Лицензия

ПШазам

Лицензия

Игра престолов

Лицензия

30
pack

ВАЖНО

!!Акция!!

Alien_RageХит недели

RePack

Resident Evil 21

ИГРА 18+

pack

RePack

Metro:Exodus

!!Акция!!

Alien_Rage

RePack

fifa19

RePack

Assassins Creed: Odyssey

RePack

NEED FOR SPEED™ PAYBACK

3 сезон

9 сезон

Бесстыжие 9 сезон

Все сериалы

все сериалы на PB.wtf

RePack

FAR CRY 5
Ребята, катастрофически не хватает 7730р. для оплаты серверов за ИЮЛЬ (всвязи с блокировками трафик упал в 3 раза), 1-2р., выручайте.
  

Ральф против интернета / Ralph Breaks the Internet (Фил Джонстон, Рич Мур) [2018, мультфильм, комедия, приключения, UHD BDRip 2160p] DUB [Лицензия] pb.wtf

Ральф против интернета через торрент pb.wtf

Размер: 8.53 GB | Добавлен: 4 мес. 18 д. назад | Торрент скачан:28 раз
Скачать  

04-04-2019 07:36 Ральф против интернета Скачать торрент  

Ральф против интернета / Ralph Breaks the Internet«From the digital world behind Wreck-It Ralph and Zootopia»

Год выпуска: 2018
Страна: США
Жанр: мультфильм, комедия, приключения, семейный, фантастика
Продолжительность: 01:52:31
Перевод: Дублированное | Лицензия
Субтитры: Русские (форс.), английские, испанские, французкие
Режиссер: Фил Джонстон, Рич Мур
В ролях:

Джон Си Райли (Ralph, озвучка), Сара Силверман (Vanellope, озвучка), Галь Гадот (Shank, озвучка), Тараджи П. Хенсон (Yesss, озвучка), Джек МакБрайер (Felix, озвучка), Джейн Линч (Calhoun, озвучка), Алан Тьюдик (KnowsMore, озвучка), Альфред Молина (Double Dan, озвучка), Эд О’Нил (Mr. Litwak, озвучка), Шон Джамброун (The Eboy, озвучка), Флула Борг (Maybe, озвучка), Тимоти С. Саймонс (Butcher Boy, озвучка)
Описание:
На этот раз Ральф и Ванилопа фон Кекс выйдут за пределы зала игровых автоматов и отправятся покорять бескрайние просторы интернета, который может и не выдержать сокрушительного обаяния громилы.
Рейтинг:

MPAA: PG - Рекомендуется присутствие родителей
Качество: UHD BDRip 2160p
Формат: MKV
Видео: HEVC HDR, 4823 Кбит/с, 3840x1606, 23.976 кадр/с, 10 бит
Аудио: AC-3, 6 ch, 640 kbps ( Дублированный | Лицензия)
Аудио: Dolby TrueHD, 8 ch, 4633 kbps (Английский Оригинал)
Аудио: AC-3, 6 ch, 640 kbps (Английский Оригинал)
Навигация по главам: есть
Общее
Уникальный идентификатор : 243865001717363570859742396133269113095 (0xB776B0E01A8DF1C7A424C32B3DED0907)
Полное имя : D:\Мои раздачи\Передел\Ralph.Breaks.the.Internet.2018.2160p.BDRip.x265.HDR.10bit.Master5.mkv
Формат : Matroska
Версия формата : Version 4 / Version 2
Размер файла : 8,53 Гбайт
Продолжительность : 1 ч. 52 м.
Режим общего битрейта : Переменный
Общий поток : 10,9 Мбит/сек
Название фильма : Ralph.Breaks.the.Internet.2018.2160p.BDRip.x265.HDR.10bit.Master5
Дата кодирования : UTC 2019-03-31 11:53:01
Программа кодирования : mkvmerge v7.9.0 ('Birds') 64bit
Библиотека кодирования : libebml v1.3.1 + libmatroska v1.4.2

Видео
Идентификатор : 1
Формат : HEVC
Формат/Информация : High Efficiency Video Coding
Коммерческое название : HDR10
Профиль формата : Main 10@L5.1@High
Идентификатор кодека : V_MPEGH/ISO/HEVC
Продолжительность : 1 ч. 52 м.
Битрейт : 4823 Кбит/сек
Ширина : 3840 пикселей
Высота : 1606 пикселей
Соотношение сторон : 2,40:1
Режим частоты кадров : Постоянный
Частота кадров : 23,976 (24000/1001) кадра/сек
Цветовое пространство : YUV
Субдискретизация насыщенности : 4:2:0 (Type 2)
Битовая глубина : 10 бит
Бит/(Пиксели*Кадры) : 0.033
Размер потока : 3,79 Гбайт (44%)
Заголовок : Ralph.Breaks.the.Internet.2018.2160p.BDRip.x265.HDR.10bit.Master5
Библиотека кодирования : x265 3.0_Au+4-dcbec33bfb0f:[Windows][GCC 6.3.0][64 bit] 10bit
Настройки программы : cpuid=1111039 / frame-threads=4 / numa-pools=20 / wpp / no-pmode / no-pme / no-psnr / no-ssim / log-level=2 / input-csp=1 / input-res=3840x1606 / interlace=0 / total-frames=161866 / level-idc=51 / high-tier=1 / uhd-bd=0 / ref=4 / no-allow-non-conformance / repeat-headers / annexb / aud / hrd / info / hash=0 / no-temporal-layers / no-open-gop / min-keyint=1 / keyint=24 / gop-lookahead=0 / bframes=4 / b-adapt=2 / b-pyramid / bframe-bias=0 / rc-lookahead=25 / lookahead-slices=4 / scenecut=40 / radl=0 / no-splice / no-intra-refresh / ctu=64 / min-cu-size=8 / rect / no-amp / max-tu-size=32 / tu-inter-depth=1 / tu-intra-depth=1 / limit-tu=0 / rdoq-level=2 / dynamic-rd=0.00 / no-ssim-rd / signhide / no-tskip / nr-intra=0 / nr-inter=0 / no-constrained-intra / no-strong-intra-smoothing / max-merge=3 / limit-refs=3 / limit-modes / me=3 / subme=3 / merange=57 / temporal-mvp / weightp / no-weightb / no-analyze-src-pics / deblock=-3:-3 / no-sao / no-sao-non-deblock / rd=4 / no-early-skip / rskip / no-fast-intra / no-tskip-fast / no-cu-lossless / no-b-intra / no-splitrd-skip / rdpenalty=0 / psy-rd=2.00 / psy-rdoq=1.00 / no-rd-refine / no-lossless / cbqpoffs=0 / crqpoffs=0 / rc=crf / crf=17.0 / qcomp=0.60 / qpstep=4 / stats-write=0 / stats-read=0 / vbv-maxrate=160000 / vbv-bufsize=160000 / vbv-init=0.9 / crf-max=0.0 / crf-min=0.0 / ipratio=1.40 / pbratio=1.30 / aq-mode=2 / aq-strength=1.00 / cutree / zone-count=0 / no-strict-cbr / qg-size=32 / no-rc-grain / qpmax=69 / qpmin=0 / no-const-vbv / sar=1 / overscan=0 / videoformat=5 / range=0 / colorprim=9 / transfer=16 / colormatrix=9 / chromaloc=1 / chromaloc-top=2 / chromaloc-bottom=2 / display-window=0 / master-display=G(13250,34500)B(7500,3000)R(34000,16000)WP(15635,16450)L(10000000,1) / max-cll=0,0 / min-luma=0 / max-luma=1023 / log2-max-poc-lsb=8 / vui-timing-info / vui-hrd-info / slices=1 / no-opt-qp-pps / no-opt-ref-list-length-pps / no-multi-pass-opt-rps / scenecut-bias=0.05 / no-opt-cu-delta-qp / no-aq-motion / hdr / hdr-opt / no-dhdr10-opt / no-idr-recovery-sei / analysis-reuse-level=5 / scale-factor=0 / refine-intra=0 / refine-inter=0 / refine-mv=0 / refine-ctu-distortion=0 / no-limit-sao / ctu-info=0 / no-lowpass-dct / refine-analysis-type=0 / copy-pic=1 / max-ausize-factor=1.0 / no-dynamic-refine / no-single-sei / no-hevc-aq / qp-adaptation-range=1.00
Default : Да
Forced : Нет
Цветовой диапазон : Limited
Основные цвета : BT.2020
Характеристики трансфера : PQ
Коэффициенты матрицы : BT.2020 non-constant
MasteringDisplay_ColorPrimaries : Display P3
MasteringDisplay_Luminance : min: 0.0001 cd/m2, max: 1000 cd/m2

Аудио #1
Идентификатор : 2
Формат : AC-3
Формат/Информация : Audio Coding 3
Идентификатор кодека : A_AC3
Продолжительность : 1 ч. 52 м.
Вид битрейта : Постоянный
Битрейт : 640 Кбит/сек
Каналы : 6 каналов
Расположение каналов : Front: L C R, Side: L R, LFE
Частота : 48,0 КГц
Частота кадров : 31,250 кадров/сек (1536 SPF)
Битовая глубина : 16 бит
Метод сжатия : С потерями
Размер потока : 515 Мбайт (6%)
Заголовок : Dub License
Язык : Russian
ServiceKind/String : Complete Main
Default : Да
Forced : Да

Аудио #2
Идентификатор : 3
Формат : TrueHD
Профиль формата : TrueHD+Atmos / TrueHD
Идентификатор кодека : A_TRUEHD
Продолжительность : 1 ч. 52 м.
Вид битрейта : Переменный
Битрейт : 4633 Кбит/сек
Максимальный битрейт : 6441 Кбит/сек
Каналы : Object Based / 8 каналов
Расположение каналов : Object Based / Front: L C R, Side: L R, Back: L R, LFE
Частота : / 48,0 КГц
Частота кадров : 1200,000 кадров/сек (40 SPF)
Метод сжатия : Без потерь
Размер потока : 3,64 Гбайт (43%)
Язык : English
Default : Нет
Forced : Нет

Аудио #3
Идентификатор : 4
Формат : AC-3
Формат/Информация : Audio Coding 3
Идентификатор кодека : A_AC3
Продолжительность : 1 ч. 52 м.
Вид битрейта : Постоянный
Битрейт : 640 Кбит/сек
Каналы : 6 каналов
Расположение каналов : Front: L C R, Side: L R, LFE
Частота : 48,0 КГц
Частота кадров : 31,250 кадров/сек (1536 SPF)
Битовая глубина : 16 бит
Метод сжатия : С потерями
Размер потока : 515 Мбайт (6%)
Язык : English
ServiceKind/String : Complete Main
Default : Нет
Forced : Нет

Текст #1
Идентификатор : 5
Формат : UTF-8
Идентификатор кодека : S_TEXT/UTF8
Идентификатор кодека/Информация : UTF-8 Plain Text
Продолжительность : 1 ч. 41 м.
Битрейт : 2 бит/сек
ElementCount : 46
Размер потока : 1,56 Кбайт (0%)
Заголовок : Forced
Язык : Russian
Default : Да
Forced : Нет

Текст #2
Идентификатор : 6
Формат : PGS
Режим смешивания : zlib
Идентификатор кодека : S_HDMV/PGS
Идентификатор кодека/Информация : Picture based subtitle format used on BDs/HD-DVDs
Продолжительность : 1 ч. 51 м.
Битрейт : 19,1 Кбит/сек
ElementCount : 4922
Размер потока : 15,3 Мбайт (0%)
Язык : English
Default : Нет
Forced : Нет

Текст #3
Идентификатор : 7
Формат : PGS
Режим смешивания : zlib
Идентификатор кодека : S_HDMV/PGS
Идентификатор кодека/Информация : Picture based subtitle format used on BDs/HD-DVDs
Продолжительность : 1 ч. 51 м.
Битрейт : 15,1 Кбит/сек
ElementCount : 3944
Размер потока : 12,0 Мбайт (0%)
Язык : French
Default : Нет
Forced : Нет

Текст #4
Идентификатор : 8
Формат : PGS
Режим смешивания : zlib
Идентификатор кодека : S_HDMV/PGS
Идентификатор кодека/Информация : Picture based subtitle format used on BDs/HD-DVDs
Продолжительность : 1 ч. 51 м.
Битрейт : 14,9 Кбит/сек
ElementCount : 3850
Размер потока : 11,9 Мбайт (0%)
Язык : Spanish
Default : Нет
Forced : Нет

Меню
00:00:00.000 : :Chapter 01
00:04:09.666 : :Chapter 02
00:11:07.417 : :Chapter 03
00:17:28.923 : :Chapter 04
00:23:43.881 : :Chapter 05
00:27:54.589 : :Chapter 06
00:34:18.807 : :Chapter 07
00:41:39.956 : :Chapter 08
00:51:27.709 : :Chapter 09
00:58:04.606 : :Chapter 10
01:01:50.957 : :Chapter 11
01:06:17.306 : :Chapter 12
01:12:31.806 : :Chapter 13
01:19:10.120 : :Chapter 14
01:27:24.030 : :Chapter 15
01:38:26.775 : :Chapter 16
pb.wtf



Скачать Ральф против интернета через торрент https://a.radikal.ru/a04/1904/86/2c7e1fbbeb58.png Скачать фильм Ральф против интернета через торрент бесплантно в хорошем качестве Описание: На этот раз Ральф и Ванилопа фон Кекс выйдут за пределы зала игровых автоматов и отправятся покорять бескрайние просторы ... 10 10 3
Торрент: Зарегистрирован [2019-04-04 07:36] · скачан: 28 раз
Статус: √ проверено
Размер: 8.53 GB
Как cкачать? Как скачать Ральф против интернета через торрент | qTorrent

% Раздел Тема Автор DL S | L
Зарубежные Мультфильмы (BDRip 1080p, 720p, Blu-ray, BD-Remux) [ 5.84 GB ] Ральф против интернета / Ralph Breaks the Internet [2018 мультфильм BDRip-HEVC 1080p ] DUB [] bober100 Скачать
1 | 0
Иностранные мультфильмы [ 1.46 GB ] Ральф против интернета / Ralph Breaks the Internet [2018 мультфильм BDRip-AVC] DUB [] bober100 Скачать
2 | 0
3D Мультфильмы [ 10.67 GB ] Ральф против интернета в 3Д / Ralph Breaks the Internet 3D [2018 мультфильм фантас BDRip 1080p] OverUnder / Вертикальная стереопара serega768 Скачать
1 | 0
3D Мультфильмы [ 8.59 GB ] Ральф против интернета 3Д / Ralph Breaks the Internet 3D [2018 мультфильм BDRip 1080p] [Half OverUnder / Вертикальная анаморфная стереопара] DUB [] bober100 Скачать
2 | 0
Мультфильмы (48-60 fps) [ 23.7 GB ] Ральф против интернета / Ralph Breaks the Internet [2018 мультфильм BDRip 1080p 60 fps] sheker187 Скачать
1 | 2
Иностранные мультфильмы [ 1.46 GB ] Ральф против интернета / Ralph Breaks the Internet [2018 мультфильм BDRip] DUB [ BD EUR] bober100 Скачать
9 | 0
Зарубежные Мультфильмы (BDRip 1080p, 720p, Blu-ray, BD-Remux) [ 4.31 GB ] Ральф против интернета / Ralph Breaks the Internet [2018 мультфильм BDRip 720p] DUB [] bober100 Скачать
1 | 0


>> Регистрируемся здесь <<






Отзывы и комментарии о схеме читаем и пишем здесь: ---> Отзывы и комментарии о схеме

Новые благодарочки в телеграм довольных пользователей:
скриншот   скриншот   скриншот   скриншот   скриншот
    Дорогой пользователь! Огромная просьба, поблагодарите релизера, оцените раздачу и оставьте свои комментарий, если Вы скачали Ральф против интернета через торрент бесплатно! Внесите свою лепту в развитие PiratBit!
    Комментировать посты могут только пользователи прошедшие не сложную регистрацию
    Показать сообщения:    

    Ральф против интернета через торрент
    Скачать бесплатно Ральф против интернета
    Ральф против интернета скачать торрент
    Ральф против интернета смотреть онлайн
    Cкачать фильм Ральф против интернета бесплатно
    Ральф против интернета скачать торрент в хорошем качестве
    Ральф против интернета смотреть онлайн бесплатно в хорошем качестве


    Вы не можете начинать темы
    Вы не можете отвечать на сообщения
    Вы не можете редактировать свои сообщения
    Вы не можете удалять свои сообщения
    Вы не можете голосовать в опросах
    Вы не можете прикреплять файлы к сообщениям
    Вы можете скачивать файлы