Marvel's Avengers Deluxe Edition (супер цена) 159р. Внимание количество ограничено!!!

2 сезон

iTunes

iTunes

1

iTunes

iTunes

iTunes

WEBRip

iTunes

30
pack

Новость дня

ВАЖНО

!!Акция!!

Alien_RageХит недели

RePack

Horizon Zero Dawn

ИГРА 18+

pack

RePack

jed

!!Акция!!

Alien_Rage

RePack

fifa19

RePack

Assassins Creed: Odyssey

RePack

NEED FOR SPEED™ PAYBACK

4 сезон

9 сезон

Бесстыжие 9 сезон

Все сериалы

все сериалы на PB.wtf

RePack

FAR CRY 5
  

Пегас / Fei chi ren sheng (Хань Хань) [2019, комедия, спорт, WEB-DL 720p] MVO ["Синема УС"] pb.wtf

Пегас через торрент pb.wtf

Размер: 4.06 GB | Добавлен: 1 год 5 мес. назад | Торрент скачан:34 раза
Скачать  

04-04-2019 09:07 Пегас Скачать торрент  

Пегас / Fei chi ren shengГод выпуска: 2019
Страна: Китай
Жанр: комедия, спорт
Продолжительность: 01:40:10
Перевод: Любительский (многоголосый) | "Синема УС"
Субтитры: отсутствуют

Режиссер: Хань Хань

rating

В ролях:

Шэнь Тэн, Джонни Хуан, Инь Чжэн, Инь Фан, Тянь Юй, Тэнгэр, Уинстон Чао, Чжан Бэньюй, Лю Шуалян

Описание:

Бывший некогда популярным автогонщиком Чжан Чи пять лет назад попал в дурацкое происшествие, вылетел из профессии и все эти годы управлялся только с лотком для уличной еды. Когда суд разрешает ему получить водительские права и вернуться в спорт, единственное, о чём мечтает Чжан, это одолеть молодую звезду ралли Ли Чжэньдуна, а тот, в свою очередь, тоже не против посоревноваться с кумиром детства. Теперь дело за малым - надо где-то раздобыть гоночный автомобиль.

Качество: WEB-DL 720p
Формат: MKV

Видео: h.264, 5410 Кбит/с, 1280x504
Аудио: Русский, (AC3, 2 ch, 384 Кбит/с)
скриншот  скриншот  скриншот  

Общее
Уникальный идентификатор : 203029943714208343757755535655039020304 (0x98BE2512F73D96AD9C5347ADC0D22D10)
Полное имя : D:\Pegasus.2019.P.WEB-DL.72Op.mkv
Формат : Matroska
Версия формата : Version 2
Размер файла : 4,06 Гбайт
Продолжительность : 1 ч. 40 м.
Режим общего битрейта : Переменный
Общий поток : 5796 Кбит/сек
Дата кодирования : UTC 2019-04-03 18:45:09
Программа кодирования : mkvmerge v8.3.0 ('Over the Horizon') 64bit
Библиотека кодирования : libebml v1.3.1 + libmatroska v1.4.2

Видео
Идентификатор : 1
Формат : AVC
Формат/Информация : Advanced Video Codec
Профиль формата : High@L4.1
Параметр CABAC формата : Да
Параметр RefFrames формата : 4 кадра
Идентификатор кодека : V_MPEG4/ISO/AVC
Продолжительность : 1 ч. 40 м.
Вид битрейта : Переменный
Битрейт : 5410 Кбит/сек
Максимальный битрейт : 6000 Кбит/сек
Ширина : 1280 пикселей
Высота : 504 пикселя
Соотношение сторон : 2,540
Режим частоты кадров : Постоянный
Частота кадров : 23,976 (24000/1001) кадра/сек
Стандарт вещания : Component
Цветовое пространство : YUV
Субдискретизация насыщенности : 4:2:0
Битовая глубина : 8 бит
Тип развёртки : Прогрессивная
Бит/(Пиксели*Кадры) : 0.342
Размер потока : 3,71 Гбайт (91%)
Default : Да
Forced : Нет
Цветовой диапазон : Limited
Основные цвета : BT.709
Характеристики трансфера : BT.709
Коэффициенты матрицы : BT.709

Аудио
Идентификатор : 2
Формат : AC-3
Формат/Информация : Audio Coding 3
Расширение режима : CM (complete main)
Параметр Endianness формата : Big
Идентификатор кодека : A_AC3
Продолжительность : 1 ч. 40 м.
Вид битрейта : Постоянный
Битрейт : 384 Кбит/сек
Каналы : 2 канала
Расположение каналов : Front: L R
Частота : 48,0 КГц
Частота кадров : 31,250 кадров/сек (1536 spf)
Метод сжатия : С потерями
Размер потока : 275 Мбайт (7%)
Default : Да
Forced : Нет

pb.wtf



Скачать Пегас через торрент https://c.radikal.ru/c17/1904/e9/45144b1ab824.jpg Скачать фильм Пегас через торрент бесплантно в хорошем качестве Описание: Бывший некогда популярным автогонщиком Чжан Чи пять лет назад попал в дурацкое происшествие, вылетел из профессии и все эти годы ... 7.8 10 4
Торрент: Зарегистрирован [2019-04-04 09:07] · скачан: 34 раз
Статус: T временная
Размер: 4.06 GB
Как cкачать? Как скачать Пегас через торрент | qTorrent

% Раздел Тема Автор DL S | L
T Фильмы (мультфильмы) cо спонсором показа (Новинки AVI/MKV) [ 1.37 GB ] Пегас / Fei chi ren sheng [2019 WEB-DLRip] MVO ["Синема УС"] bober100 Скачать
1 | 0

28-11-2019 20:33  

Отключить всю рекламу на сайте

    Дорогой пользователь! Огромная просьба, поблагодарите релизера, оцените раздачу и оставьте свои комментарий, если Вы скачали Пегас через торрент бесплатно! Внесите свою лепту в развитие PiratBit!
    Комментировать посты могут только пользователи прошедшие не сложную регистрацию
    Показать сообщения:    

    Пегас через торрент
    Скачать бесплатно Пегас
    Пегас скачать торрент
    Пегас смотреть онлайн
    Cкачать фильм Пегас бесплатно
    Пегас скачать торрент в хорошем качестве
    Пегас смотреть онлайн бесплатно в хорошем качестве


    Вы не можете начинать темы
    Вы не можете отвечать на сообщения
    Вы не можете редактировать свои сообщения
    Вы не можете удалять свои сообщения
    Вы не можете голосовать в опросах
    Вы не можете прикреплять файлы к сообщениям
    Вы можете скачивать файлы