Ссылка на приватное зеркало нашего сайта всего за 1$. Внимание количество ограничено!!!

2 сезон

iTunes

1 сезон

1

2 сезон

2 сезон

iTunes

1 сезон

RePack

30

Новинка

ВАЖНО

ИГРА 18+

pack

RePack

MK11
pack

Забери бонус

RePack

jed

!!Акция!!

Alien_Rage

RePack

fifa19

RePack

Assassins Creed: Odyssey

RePack

NEED FOR SPEED™ PAYBACK

4 сезон

9 сезон

Бесстыжие 9 сезон

Все сериалы

все сериалы на PB.wtf

RePack

FAR CRY 5
  

Тьма / The Dark (Джастин П. Ланж) [2018, Ужасы, драма, BD Remux 1080p] MVO [HDrezka Studio] pb.wtf

Тьма через торрент pb.wtf

Размер: 18.03 GB | Добавлен: 1 год 7 мес. назад | Торрент скачан:25 раз
Скачать  

05-04-2019 02:27 Тьма Скачать торрент  

Тьма / The Dark Год выпуска: 2018
Страна: Австрия
Жанр: Ужасы, драма
Продолжительность: 01:34:45
Перевод: Профессиональный (многоголосый) | HDrezka Studio
Субтитры: английские

Режиссер: Джастин П. Ланж

rating

В ролях:

Надя Александр, Тоби Николс, Карл Маркович, Маргарете Тизель, Скотт Боуден, Крис Фаркуар, Сара Мерфи-Дайсон, Дилан Троубридж

Описание:

Разыскиваемый по всей стране преступник пытается скрыться в одиноко стоящем доме в лесу, но вместо тишины и покоя его настигает топор прямо в лоб и девушка-нежить. Её зовут Мина и перекусив убитым, в его машине она обнаруживает затюканного слепого парня, которого решает не убивать.

Качество: BD Remux 1080p
Формат: MKV

Видео: MPEG-2, 1920x1080 (16:9), 25004 kbps, 23.976 fps
Аудио#1: Russian: АС3, 2 ch, 48 kHz, 192 kbps - MVO, HDrezka Studio
Аудио#2: English: DTS-HD MA, 6 ch, 48 kHz, 2048 kbps, 16-bit (DTS Core 6 ch, 48 kHz, 1509 kbps)
скриншот  скриншот  скриншот  скриншот  

General
Unique ID : 297539112414452288990831205588633836944 (0xDFD7F2D8ED3ECE3A1ABE9699728EDD90)
Complete name : The.Dark.2018.Remux.mkv
Format : Matroska
Format version : Version 4 / Version 2
File size : 18.0 GiB
Duration : 1 h 34 min
Overall bit rate mode : Variable
Overall bit rate : 27.2 Mb/s
Encoded date : UTC 2019-04-04 12:43:54
Writing application : mkvmerge v20.0.0 ('I Am The Sun') 64-bit
Writing library : libebml v1.3.5 + libmatroska v1.4.8

Video
ID : 1
Format : MPEG Video
Format version : Version 2
Format profile : Main@High
Format settings : BVOP
Format settings, BVOP : Yes
Format settings, Matrix : Default
Format settings, GOP : M=3, N=12
Codec ID : V_MPEG2
Codec ID/Info : MPEG 1 or 2 Video
Duration : 1 h 34 min
Bit rate mode : Variable
Bit rate : 25.0 Mb/s
Maximum bit rate : 40.0 Mb/s
Width : 1 920 pixels
Height : 1 080 pixels
Display aspect ratio : 16:9
Frame rate mode : Constant
Frame rate : 23.976 (24000/1001) FPS
Color space : YUV
Chroma subsampling : 4:2:0
Bit depth : 8 bits
Scan type : Progressive
Compression mode : Lossy
Bits/(Pixel*Frame) : 0.503
Time code of first frame : 00:00:00:00
Time code source : Group of pictures header
GOP, Open/Closed : Closed
Stream size : 16.5 GiB (92%)
Language : English
Default : Yes
Forced : No

Audio #1
ID : 2
Format : AC-3
Format/Info : Audio Coding 3
Codec ID : A_AC3
Duration : 1 h 34 min
Bit rate mode : Constant
Bit rate : 192 kb/s
Channel(s) : 2 channels
Channel positions : Front: L R
Sampling rate : 48.0 kHz
Frame rate : 31.250 FPS (1536 SPF)
Bit depth : 16 bits
Compression mode : Lossy
Stream size : 130 MiB (1%)
Title : MVO, HDrezka
Language : Russian
Service kind : Complete Main
Default : Yes
Forced : No

Audio #2
ID : 3
Format : DTS
Format/Info : Digital Theater Systems
Format profile : MA / Core
Codec ID : A_DTS
Duration : 1 h 34 min
Bit rate mode : Variable / Constant
Bit rate : 2 048 kb/s / 1 509 kb/s
Channel(s) : 6 channels
Channel positions : Front: L C R, Side: L R, LFE
Sampling rate : 48.0 kHz
Frame rate : 93.750 FPS (512 SPF)
Bit depth : 16 bits
Compression mode : Lossless / Lossy
Stream size : 1.35 GiB (8%)
Language : English
Default : No
Forced : No

Text
ID : 4
Format : UTF-8
Codec ID : S_TEXT/UTF8
Codec ID/Info : UTF-8 Plain Text
Duration : 1 h 29 min
Bit rate : 18 b/s
Count of elements : 513
Stream size : 12.3 KiB (0%)
Language : English
Default : No
Forced : No

Menu
00:00:00.000 : en:Chapter 1
00:09:08.047 : en:Chapter 2
00:22:52.871 : en:Chapter 3
00:37:09.227 : en:Chapter 4
00:51:26.583 : en:Chapter 5
01:03:31.808 : en:Chapter 6
01:16:32.087 : en:Chapter 7
01:27:45.260 : en:Chapter 8

pb.wtf



Скачать Тьма через торрент https://d.radikal.ru/d28/1904/8f/4619772544b0.png Скачать фильм Тьма через торрент бесплантно в хорошем качестве Описание: Разыскиваемый по всей стране преступник пытается скрыться в одиноко стоящем доме в лесу, но вместо тишины и покоя его настигает ... 10 10 3
Торрент: Зарегистрирован [2019-04-05 02:27] · скачан: 25 раз
Статус: T временная
Размер: 18.03 GB
Как cкачать? Как скачать Тьма через торрент | qTorrent

% Раздел Тема Автор DL S | L
Фильмы [HD 720p, 1080p] (Хороший звук DUB, MVO) [ 9.37 GB ] Призрак и Тьма / The Ghost and the Darkness [1996 BDRip 720p] [Remastered] MVO DVO AVO - KORSAR lesnik125 Скачать
1 | 0
Классика зарубежного кино [ 11.77 GB ] И скоро наступит тьма / And Soon the Darkness [1970 BDRip 1080p by msltel] VO msltel Скачать
1 | 0
Классика зарубежного кино [ 4.5 GB ] И скоро наступит тьма / And Soon the Darkness [1970 BDRip 720p by msltel] VO msltel Скачать
1 | 0
Классика зарубежного кино [ 2.36 GB ] И скоро наступит тьма / And Soon the Darkness [1970 BDRip by msltel] VO msltel Скачать
1 | 0
Фильмы [HD 720p, 1080p] (Хороший звук DUB, MVO) [ 13.13 GB ] Призрак и Тьма / The Ghost and the Darkness [1996 BDRip-HEVC 1080p от KORSAR][Remastered][MVO + 2xDVO + 3xAVO] Cthulhu Скачать
1 | 0
T Фильмы (мультфильмы) cо спонсором показа (Новинки AVI/MKV) [ 3.63 GB ] Тьма внутри / The Dark Within [2019 WEB-DL 720p] MVO ["Синема УС"] bober100 Скачать
1 | 0
T Фильмы (мультфильмы) cо спонсором показа (Новинки AVI/MKV) [ 1.38 GB ] Тьма внутри / The Dark Within [2019 WEB-DLRip] MVO ["Синема УС"] bober100 Скачать
1 | 0

28-11-2019 20:33  

Отключить всю рекламу на сайте

    Дорогой пользователь! Огромная просьба, поблагодарите релизера, оцените раздачу и оставьте свои комментарий, если Вы скачали Тьма через торрент бесплатно! Внесите свою лепту в развитие PiratBit!
    Комментировать посты могут только пользователи прошедшие не сложную регистрацию
    Показать сообщения:    

    Тьма через торрент
    Скачать бесплатно Тьма
    Тьма скачать торрент
    Тьма смотреть онлайн
    Cкачать фильм Тьма бесплатно
    Тьма скачать торрент в хорошем качестве
    Тьма смотреть онлайн бесплатно в хорошем качестве


    Вы не можете начинать темы
    Вы не можете отвечать на сообщения
    Вы не можете редактировать свои сообщения
    Вы не можете удалять свои сообщения
    Вы не можете голосовать в опросах
    Вы не можете прикреплять файлы к сообщениям
    Вы можете скачивать файлы