1 сезон

1 сезон

iTunes

1

КиноПоиск HD

Кинопоиск HD

iTunes

13

1 сезон

RePack

30

Новинка

ВАЖНО

ИГРА 18+

pack

RePack

MK11
pack

Легкие деньги

RePack

jed

RePack

fifa19

RePack

RDR2

RePack

NEED FOR SPEED™ PAYBACK

4 сезон

9 сезон

Бесстыжие 9 сезон

Все сериалы

все сериалы на PB.wtf

RePack

FAR CRY 5
  
Magnet ссылка

Очень страшное кино 3 / Scary Movie 3 (Дэвид Цукер) [2003, комедия, HDRip] [Расширенная версия] VO [Кураж-Бамбей] pb.wtf

Очень страшное кино 3 через торрент pb.wtf

Размер: 1.42 GB | Добавлен: 2 года назад | Торрент скачан:39 раз
Скачать  

05-04-2019 04:20 Очень страшное кино 3 Скачать торрент  

Очень страшное кино 3 / Scary Movie 3 Год выпуска: 2003
Страна: США Канада
Жанр: комедия
Продолжительность: 01:25:40 | Расширенная версия
Перевод: Профессиональный (одноголосый) | Кураж-Бамбей
Субтитры: русские (forced) / отдельным файлом

Режиссер: Дэвид Цукер

rating

В ролях:

Анна Фэрис, Энтони Андерсон, Лесли Нильсен, Камрин Менхейм, Саймон Рекс, Джордж Карлин, Памела Андерсон, Дженни МакКарти

Описание:

Журналистка Синди Кэмпбелл становится свидетельницей необъяснимых явлений. На Землю готовится высадиться десант зловещих инопланетян, на полях появляются странные концентрические круги, некий Избранный пророчит нехорошее всему человечеству, дети со странными глазами пугают взрослых, под угрозой жизнь самого Президента. Зло наступает со всех сторон...

Качество: HDRip
Формат: AVI

Видео: 704x400 (16:9), 23.976 fps, XviD build 65 ~1 970 kbps avg
Аудио#1: 48.0 kHz, AC3 Dolby Digital, 2/0 (L,R) ch, ~192 kbps | RUS
Аудио#2: 48.0 kHz, AC3 Dolby Digital, 2/0 (L,R) ch, ~192 kbps | ENG
скриншот  скриншот  скриншот  

General
Полное имя : Scary.Movie.3.Unrated.2003.HDRip.avi
Формат : AVI
Формат/Информация : Audio Video Interleave
Размер файла : 1,42 Гбайт
Продолжительность : 1 ч. 25 м.
Общий поток : 2368 Кбит/сек
Программа кодирования : VirtualDubMod 1.5.10.2 (build 2540/release)
Библиотека кодирования : VirtualDubMod build 2540/release

Видео
Идентификатор : 0
Формат : MPEG-4 Visual
Профиль формата : Advanced Simple@L5
Параметр BVOP формата : 1
Параметр QPel формата : Нет
Параметр GMC формата : Без точки перехода
Параметр матрицы формата : Выборочная
Идентификатор кодека : XVID
Идентификатор кодека/Подсказка : XviD
Продолжительность : 1 ч. 25 м.
Битрейт : 1970 Кбит/сек
Ширина : 704 пикселя
Высота : 400 пикселей
Соотношение сторон : 16:9
Частота кадров : 23,976 (24000/1001) кадра/сек
Цветовое пространство : YUV
Субдискретизация насыщенности : 4:2:0
Битовая глубина : 8 бит
Тип развёртки : Прогрессивная
Метод сжатия : С потерями
Бит/(Пиксели*Кадры) : 0.292
Размер потока : 1,18 Гбайт (83%)
Библиотека кодирования : XviD 65

Аудио #1
Идентификатор : 1
Формат : AC-3
Формат/Информация : Audio Coding 3
Параметр Endianness формата : Big
Идентификатор кодека : 2000
Продолжительность : 1 ч. 25 м.
Вид битрейта : Постоянный
Битрейт : 192 Кбит/сек
Каналы : 2 канала
Расположение каналов : Front: L R
Частота : 48,0 КГц
Частота кадров : 31,250 кадров/сек (1536 spf)
Битовая глубина : 16 бит
Метод сжатия : С потерями
Размер потока : 118 Мбайт (8%)
Выравнивание : Разделение по промежуткам
Продолжительность промежутка : 42 мс. (1,00 видеокадр)
Время предзагрузки промежутка : 500 мс.

Аудио #2
Идентификатор : 2
Формат : AC-3
Формат/Информация : Audio Coding 3
Параметр Endianness формата : Big
Идентификатор кодека : 2000
Продолжительность : 1 ч. 25 м.
Вид битрейта : Постоянный
Битрейт : 192 Кбит/сек
Каналы : 2 канала
Расположение каналов : Front: L R
Частота : 48,0 КГц
Частота кадров : 31,250 кадров/сек (1536 spf)
Битовая глубина : 16 бит
Метод сжатия : С потерями
Размер потока : 118 Мбайт (8%)
Выравнивание : Разделение по промежуткам
Продолжительность промежутка : 42 мс. (1,00 видеокадр)
Время предзагрузки промежутка : 500 мс.

Общее
Полное имя : Scary.Movie.3.Unrated.2003.HDRip.srt
Формат : SubRip
Размер файла : 1,66 Кбайт
Текст
Формат : SubRip
Метод сжатия : Без потерь

pb.wtf



Скачать Очень страшное кино 3 через торрент http://d.radikal.ru/d29/1904/84/e9e1f478b90a.jpg Скачать фильм Очень страшное кино 3 через торрент бесплантно в хорошем качестве Описание: Журналистка Синди Кэмпбелл становится свидетельницей необъяснимых явлений. На Землю готовится высадиться десант зловещих ... 10 10 3
Торрент: Зарегистрирован [2019-04-05 04:20] · скачан: 39 раз
Статус: √ проверено
Размер: 1.42 GB
Как cкачать? Как скачать Очень страшное кино 3 через торрент | UTorrent

% Раздел Тема Автор DL S | L
Фильмы [HD 720p, 1080p] (Хороший звук DUB, MVO) [ 11.76 GB ] Очень страшное кино 3 / Scary Movie 3 [2003 BDRip 1080p by msltel] DUB MVO DVO AVO msltel Скачать
1 | 0
Фильмы [HD 720p, 1080p] (Хороший звук DUB, MVO) [ 4.55 GB ] Очень страшное кино 3 / Scary Movie 3 [2003 BDRip 720p by msltel] DUB MVO DVO AVO msltel Скачать
1 | 0
Фильмы 2001-2005 [ 700 MB ] Очень страшное кино 3 / Scary Movie 3 [2003 / DVDRip] Dima100kg Скачать
1 | 0

28-11-2019 20:33  

Отключить всю рекламу на сайте


    Дорогой пользователь! Огромная просьба, поблагодарите релизера, оцените раздачу и оставьте свои комментарий, если Вы скачали Очень страшное кино 3 через торрент бесплатно! Внесите свою лепту в развитие PiratBit!
    Комментировать посты могут только пользователи прошедшие не сложную регистрацию
    Показать сообщения:    

    Очень страшное кино 3 через торрент
    Скачать бесплатно Очень страшное кино 3
    Очень страшное кино 3 скачать торрент
    Очень страшное кино 3 смотреть онлайн
    Cкачать фильм Очень страшное кино 3 бесплатно
    Очень страшное кино 3 скачать торрент в хорошем качестве
    Очень страшное кино 3 смотреть онлайн бесплатно в хорошем качестве


    Вы не можете начинать темы
    Вы не можете отвечать на сообщения
    Вы не можете редактировать свои сообщения
    Вы не можете удалять свои сообщения
    Вы не можете голосовать в опросах
    Вы не можете прикреплять файлы к сообщениям
    Вы можете скачивать файлы