Ссылка на приватное зеркало всего за 1$. Внимание количество ограничено!!!

OK

1+1

iTunes

мы

OK

1

WEB-DLRip

Джокер

Пифагор

Ведьмак / The Witcher сериал

Лицензия

ПШазам

ОК

Оно 2

iTunes

30
pack

Вам бонус

ВАЖНО

!!Акция!!

Alien_RageХит недели

RePack

Resident Evil 21

ИГРА 18+

pack

RePack

jed

RePack

fifa19

RePack

Assassins Creed: Odyssey

RePack

NEED FOR SPEED™ PAYBACK

4 сезон

9 сезон

Бесстыжие 9 сезон

Все сериалы

все сериалы на PB.wtf

RePack

FAR CRY 5
  

Мумия возрождается / Mummy Reborn (Дэн Аллен) [2019 г., Приключения, WEB-DLRip, Любительский (многоголосый)(Синема УС)] pb.wtf

Мумия возрождается через торрент pb.wtf

Раздают: 1 [ 0 KB/s ] Качают: 1 [ 0 KB/s ]
Размер: 1.34 GB | Добавлен: 9 мес. назад | Торрент скачан:205 раз
Скачать  

05-04-2019 07:16 Мумия возрождается Скачать торрент  

Мумия возрождается / Mummy Reborn
Год выпуска: 2019
Страна: Великобритания / Proportion Productions
Жанр: Приключения
Продолжительность: 01:19:54
Перевод: Любительский (многоголосый)(Синема УС)
Субтитры: Нет

Режиссер: Дэн Аллен

rating

В ролях: Бекка Хирани, Тара МакГоурэн, Рита Сиддики, Тиффани-Эллен Робинсон, Джорджия Вуд, Джитендра Рай, Шарлин Дюрран, Крис Кэй, Херонимо Сехми, Клодин-Элен Амор

Описание: Когда группа подростков, которым отчаянно нужны деньги, решают ограбить местный антикварный магазин, они находят старый деревянный гроб, в котором лежит мумия и древний амулет. Но они не догадываются, что мумия проклята, и пойдет на все, чтобы вернуть амулет истинному хозяину. Воришки должны поторопиться, чтобы вернуть мумию на место и спасти мир, пока не стало слишком поздно.

Доп. информация: Присутствуют вставки текстовой рекламы

Качество: WEB-DLRip
Формат: AVI
Видео кодек: XviD
Аудио кодек: AC3
Видео: XviD, 720x304, ~1997 Kbps
Аудио#1: AC-3, 2 ch, 384 Kbps
скриншот   скриншот   скриншот   скриншот  

Общее
Полное имя : D:\NNM\Мумия возрождается\Mummy Reborn 2019 WEB-DLRip.avi
Формат : AVI
Формат/Информация : Audio Video Interleave
Профиль формата : OpenDML
Размер файла : 1,34 Гбайт
Продолжительность : 1 ч. 19 м.
Общий поток : 2393 Кбит/сек

Видео
Идентификатор : 0
Формат : MPEG-4 Visual
Профиль формата : Advanced Simple@L5
Настройки формата : BVOP2 / Custom Matrix
Параметр BVOP формата : 2
Параметр QPel формата : Нет
Параметр GMC формата : Без точки перехода
Параметр матрицы формата : Выборочная
Идентификатор кодека : XVID
Идентификатор кодека/Подсказка : XviD
Продолжительность : 1 ч. 19 м.
Битрейт : 1997 Кбит/сек
Ширина : 720 пикселей
Высота : 304 пикселя
Соотношение сторон : 2,35:1
Частота кадров : 23,976 (24000/1001) кадра/сек
Цветовое пространство : YUV
Субдискретизация насыщенности : 4:2:0
Битовая глубина : 8 бит
Тип развёртки : Прогрессивная
Метод сжатия : С потерями
Бит/(Пиксели*Кадры) : 0.380
Размер потока : 1,11 Гбайт (83%)
Библиотека кодирования : XviD 1.2.1 (UTC 2008-12-04)

Аудио
Идентификатор : 1
Формат : AC-3
Формат/Информация : Audio Coding 3
Коммерческое название : Dolby Digital
Идентификатор кодека : 2000
Продолжительность : 1 ч. 19 м.
Вид битрейта : Постоянный
Битрейт : 384 Кбит/сек
Каналы : 2 канала
Channel layout : L R
Частота : 48,0 КГц
Частота кадров : 31,250 кадров/сек (1536 SPF)
Битовая глубина : 16 бит
Метод сжатия : С потерями
Размер потока : 219 Мбайт (16%)
Выравнивание : Соединение по промежуткам
Продолжительность промежутка : 32 мс. (0,77 видеокадр)
ServiceKind/String : Complete Main

pb.wtf



Скачать Мумия возрождается через торрент http://pic1.kartinco.top/images/12/uu3ip.jpg Скачать фильм Мумия возрождается через торрент бесплантно в хорошем качестве Описание: Когда группа подростков, которым отчаянно нужны деньги, решают ограбить местный антикварный магазин, они находят старый ... 9.3 10 7
Торрент: Зарегистрирован [2019-04-05 07:16] · скачан: 205 раз
Статус: T временная
Размер: 1.34 GB
Как cкачать? Как скачать Мумия возрождается через торрент | qTorrent

% Раздел Тема Автор DL S | L
T Фильмы (мультфильмы) cо спонсором показа (Новинки AVI/MKV) [ 3.26 GB ] Мумия возрождается / Mummy Reborn [2019 WEB-DL 720p] MVO ["Синема УС"] bober100 Скачать
2 | 0

28-11-2019 20:33  

Отключить всю рекламу на сайте

05-04-2019 07:52 Мумия возрождается Скачать торрент  

я по скриншотам оценил ))))pb.wtf



05-04-2019 11:42 Мумия возрождается Скачать торрент  

Надо уже выдавать Оскар за трешак года. Этот получил бы по всем номинациям.pb.wtf



05-04-2019 12:01 Мумия возрождается Скачать торрент  

думал порно ан нет)pb.wtf



05-04-2019 15:15 Мумия возрождается Скачать торрент  

полный отстойpb.wtf



05-04-2019 16:15 Мумия возрождается Скачать торрент  

Renzo писал(а):

думал порно ан нет)

жесть :)pb.wtf



06-04-2019 09:11 Мумия возрождается Скачать торрент  

bolvi68 писал(а):

pilgrim83 писал(а):

я по скриншотам оценил ))))

...Бэка и Тара возрождают мумию...

Hand Made pb.wtf



    Дорогой пользователь! Огромная просьба, поблагодарите релизера, оцените раздачу и оставьте свои комментарий, если Вы скачали Мумия возрождается через торрент бесплатно! Внесите свою лепту в развитие PiratBit!
    Комментировать посты могут только пользователи прошедшие не сложную регистрацию
    Показать сообщения:    

    Мумия возрождается через торрент
    Скачать бесплатно Мумия возрождается
    Мумия возрождается скачать торрент
    Мумия возрождается смотреть онлайн
    Cкачать фильм Мумия возрождается бесплатно
    Мумия возрождается скачать торрент в хорошем качестве
    Мумия возрождается смотреть онлайн бесплатно в хорошем качестве


    Вы не можете начинать темы
    Вы не можете отвечать на сообщения
    Вы не можете редактировать свои сообщения
    Вы не можете удалять свои сообщения
    Вы не можете голосовать в опросах
    Вы не можете прикреплять файлы к сообщениям
    Вы можете скачивать файлы