новый адрес
Мега распродажа FORZA HORIZON 4 ULTIMATE+ВСЕ DLC+ОНЛАЙН всего за 499р. 349 руб. (супер цена). Внимание количество ограничено!!!

iTunes

1+1

iTunes

мы

iTunes

1

iTunes

Чернобыль

iTunes

Ральф против интернета

Лицензия

ПШазам

Лицензия

Игра престолов

Лицензия

30
pack

ВАЖНО

!!Акция!!

Alien_RageХит недели

RePack

Resident Evil 21

ИГРА 18+

pack

RePack

Metro:Exodus

!!Акция!!

Alien_Rage

RePack

fifa19

RePack

Assassins Creed: Odyssey

RePack

NEED FOR SPEED™ PAYBACK

3 сезон

9 сезон

Бесстыжие 9 сезон

Все сериалы

все сериалы на PB.wtf

RePack

FAR CRY 5
Ребята, катастрофически не хватает 1900р. для оплаты серверов за Октябрь (всвязи с блокировками трафик упал в 3 раза), 1-2р., выручайте.
  

Бабушка легкого поведения 2.Престарелые Мстители (Марюс Вайсберг) [2019 г., Комедия, WEB-DLRip] pb.wtf

Бабушка легкого поведения 2.Престарелые Мстители через торрент pb.wtf

Размер: 1.09 GB | Добавлен: 7 мес. назад | Торрент скачан:784 раза
Скачать  

28-02-2019 04:15 Бабушка легкого поведения 2.Престарелые Мстители Скачать торрент  

Бабушка легкого поведения 2.Престарелые Мстители
Год выпуска: 2019
Страна: Россия
Жанр: Комедия
Продолжительность: 01:22:09
Перевод: Не требуется Русский
Субтитры: Отсутствуют

Режиссер: Марюс Вайсберг



В ролях: Александр Ревва, Дмитрий Нагиев, Михаил Галустян, Глюкоза, Роман Курцын, Марина Федункив, Евгений Герчаков, Елена Валюшкина, Наталья Бардо, Мария Горбань

Описание: В продолжении популярной комедии зрителей вновь ждет встреча с обаятельным аферистом Сашей Рубенштейном и командой пенсионеров, которые теперь перебрались в Москву. Но их счастливой жизни приходит конец, когда банк, в котором хранятся все сбережения стариков, банкротит беспринципный олигарх Бородин. Саша и «ОПГ — организованная пенсионная группировка» опять объединяются, чтобы отомстить обидчику.
Дополнительно: Рекламы нет.
Качество: WEB-DLRip
Формат: AVI
Видео кодек: XviD
Аудио кодек: AC3
Видео: XviD, 720x400, ~1703 Kbps
Аудио#1: AC-3, 2 ch, 192 Kbps
скриншот   скриншот   скриншот   скриншот  

Общее
Полное имя : E:\NNM\Бабушка лёгкого поведения 2\Babushka legkogo povedeniya-2 2019 WEB-DLRip.avi
Формат : AVI
Формат/Информация : Audio Video Interleave
Размер файла : 1,09 Гбайт
Продолжительность : 1 ч. 22 м.
Общий поток : 1905 Кбит/сек
Программа кодирования : VirtualDubMod 1.5.10.3 | www.virtualdub-fr.org || (build 2550/release)
Библиотека кодирования : VirtualDubMod build 2550/release

Видео
Идентификатор : 0
Формат : MPEG-4 Visual
Профиль формата : Advanced Simple@L5
Настройки формата : BVOP1
Параметр BVOP формата : 1
Параметр QPel формата : Нет
Параметр GMC формата : Без точки перехода
Параметр матрицы формата : Default (MPEG)
Идентификатор кодека : XVID
Идентификатор кодека/Подсказка : XviD
Продолжительность : 1 ч. 22 м.
Битрейт : 1703 Кбит/сек
Ширина : 720 пикселей
Высота : 400 пикселей
Соотношение сторон : 16:9
Частота кадров : 25,000 кадров/сек
Цветовое пространство : YUV
Субдискретизация насыщенности : 4:2:0
Битовая глубина : 8 бит
Тип развёртки : Прогрессивная
Метод сжатия : С потерями
Бит/(Пиксели*Кадры) : 0.236
Размер потока : 1001 Мбайт (89%)
Библиотека кодирования : XviD 65

Аудио
Идентификатор : 1
Формат : AC-3
Формат/Информация : Audio Coding 3
Идентификатор кодека : 2000
Продолжительность : 1 ч. 22 м.
Вид битрейта : Постоянный
Битрейт : 192 Кбит/сек
Каналы : 2 канала
Расположение каналов : Front: L R
Частота : 48,0 КГц
Частота кадров : 31,250 кадров/сек (1536 SPF)
Битовая глубина : 16 бит
Метод сжатия : С потерями
Размер потока : 113 Мбайт (10%)
Выравнивание : Разделение по промежуткам
Продолжительность промежутка : 40 мс. (1,00 видеокадр)
Время предзагрузки промежутка : 500 мс.
ServiceKind/String : Complete Main

pb.wtf



Скачать Бабушка легкого поведения 2.Престарелые Мстители через торрент http://pic1.kartinco.top/images/12/w9mcm.jpg Скачать фильм Бабушка легкого поведения 2.Престарелые Мстители через торрент бесплантно в хорошем качестве Описание: В продолжении популярной комедии зрителей вновь ждет встреча с обаятельным аферистом Сашей Рубенштейном и командой пенсионеров, ... 9.6 10 45
Торрент: Зарегистрирован [2019-04-05 09:13] · скачан: 784 раз
Статус: √ проверено
Размер: 1.09 GB
Как cкачать? Как скачать Бабушка легкого поведения 2.Престарелые Мстители через торрент | qTorrent

% Раздел Тема Автор DL S | L
Наши фильмы (HD, WEB-DL 720p, 1080p) [ 3.04 GB ] Бабушка легкого поведения 2. Престарелые Мстители [2019 WEB-DL 1080p] bober100 Скачать
14 | 0


Последний раз редактировалось: oleg8 (2019-02-28 07:54), всего редактировалось 1 раз


>> Регистрируемся здесь <<






Отзывы и комментарии о схеме читаем и пишем здесь: ---> Отзывы и комментарии о схеме

Новые благодарочки в телеграм довольных пользователей:
скриншот   скриншот   скриншот   скриншот   скриншот
    Дорогой пользователь! Огромная просьба, поблагодарите релизера, оцените раздачу и оставьте свои комментарий, если Вы скачали Бабушка легкого поведения 2.Престарелые Мстители через торрент бесплатно! Внесите свою лепту в развитие PiratBit!
    Комментировать посты могут только пользователи прошедшие не сложную регистрацию
    Показать сообщения:    

    Бабушка легкого поведения 2.Престарелые Мстители через торрент
    Скачать бесплатно Бабушка легкого поведения 2.Престарелые Мстители
    Бабушка легкого поведения 2.Престарелые Мстители скачать торрент
    Бабушка легкого поведения 2.Престарелые Мстители смотреть онлайн
    Cкачать фильм Бабушка легкого поведения 2.Престарелые Мстители бесплатно
    Бабушка легкого поведения 2.Престарелые Мстители скачать торрент в хорошем качестве
    Бабушка легкого поведения 2.Престарелые Мстители смотреть онлайн бесплатно в хорошем качестве


    Вы не можете начинать темы
    Вы не можете отвечать на сообщения
    Вы не можете редактировать свои сообщения
    Вы не можете удалять свои сообщения
    Вы не можете голосовать в опросах
    Вы не можете прикреплять файлы к сообщениям
    Вы можете скачивать файлы