Ссылка на приватное зеркало нашего сайта всего за 1$. Внимание количество ограничено!!!

2 сезон

iTunes

1 сезон

1

2 сезон

2 сезон

iTunes

1 сезон

RePack

30

Ultimate

ВАЖНО

ИГРА 18+

pack

RePack

MK11
pack

Забери бонус

RePack

jed

!!Акция!!

Alien_Rage

RePack

fifa19

RePack

Assassins Creed: Odyssey

RePack

NEED FOR SPEED™ PAYBACK

4 сезон

9 сезон

Бесстыжие 9 сезон

Все сериалы

все сериалы на PB.wtf

RePack

FAR CRY 5
  

Леденящие душу приключения Сабрины / Chilling Adventures of Sabrina / Сезон: 2 / Серии: 1-9 из 9 (Роб Шейденгланц, Мэгги Кили, Ли Толанд Кригер) [2019, ужасы, фэнтези, триллер, драма, детектив, WEBRip 1080p] [Dub] (Пифагор) pb.wtf

Леденящие душу приключения Сабрины через торрент pb.wtf

Размер: 13.07 GB | Добавлен: 1 год 7 мес. назад | Торрент скачан:136 раз
Скачать  

05-04-2019 16:47 Леденящие душу приключения Сабрины Скачать торрент  

Леденящие душу приключения Сабрины / Chilling Adventures of Sabrina Год выпуска: 2019
Страна: США
Жанр: ужасы, фэнтези, триллер, драма, детектив
Продолжительность: ~ 00:57:00

Перевод: Профессиональный (дублированный) Пифагор по заказу Netflix

Режиссёр: Роб Шейденгланц, Мэгги Кили, Ли Толанд Кригер

В ролях: Кирнан Шипка, Росс Линч, Люси Дэвис, Мишель Гомес, Жасмин Сабино, Тати Габриэль, Ричард Койл, Миранда Отто, Бронсон Пиншо

Описание: Сабрина Спеллман — получеловек и полуведьма, живущая в маленьком городе Гриндэйл. В Хэллоуин ей исполнится 16 лет и ей придётся пройти тёмные крестины — священное обещание служения Властелину Тьмы. Чтобы это сделать, Сабрина должна распрощаться со своей земной жизнью и отправиться в академию незримых искусств, дабы стать настоящей ведьмой. Но она отказывается делать это, ибо не хочет прощаться со своими друзьями и своим парнем. Из-за этого Сабрина попадает под гнев Властелина Тьмы и ведьминого клана Церкви тьмы. Теперь ей придётся бороться за свою свободу и свободу своих близких.

ratingскриншот  

Качество: WEBRip 1080p
Контейнер: MKV
Видео: AVC, 1920x1080 (16:9), 23.976 fps, 4155 kb/s
Аудио: Русский, AC3, 48 kHz, 6 ch, 384 kbps
Аудио 2: Английский, E-AC3, 48 kHz, 6 ch, 640 kbps
Субтитры: Русские, Английские, Французские, Немецкие и другие
Общее
Уникальный идентификатор : 42087817086601847591583018253452231715 (0x1FA9D197C57B19D58FF6865F62D2C423)
Полное имя : ..\Chilling.Adventures.of.Sabrina\Chilling.Adventures.of.Sabrina.S02.WEBRip.1080p.by.ex2life2\Chilling.Adventures.of.Sabrina.S02E01.WEBRip.1080p.by.ex2life.mkv
Формат : Matroska
Версия формата : Version 4
Размер файла : 1,60 Гбайт
Продолжительность : 55 м. 12 с.
Режим общего битрейта : Переменный
Общий поток : 4155 Кбит/сек
Название фильма : Chilling Adventures of Sabrina S02E01 (The Epiphany) release by ex2life
Дата кодирования : UTC 2019-04-05 22:22:42
Программа кодирования : mkvmerge v30.1.0 ('Forever And More') 64-bit
Библиотека кодирования : libebml v1.3.6 + libmatroska v1.4.9

Видео
Идентификатор : 1
Формат : AVC
Формат/Информация : Advanced Video Codec
Профиль формата : Main@L4
Настройки формата : CABAC / 3 Ref Frames
Параметр CABAC формата : Да
Параметр RefFrames формата : 3 кадра
Идентификатор кодека : V_MPEG4/ISO/AVC
Продолжительность : 55 м. 11 с.
Вид битрейта : Переменный
Битрейт : 3160 Кбит/сек
Максимальный битрейт : 4740 Кбит/сек
Ширина : 1920 пикселей
Высота : 1080 пикселей
Соотношение сторон : 16:9
Режим частоты кадров : Постоянный
Частота кадров : 23,976 (24000/1001) кадра/сек
Цветовое пространство : YUV
Субдискретизация насыщенности : 4:2:0
Битовая глубина : 8 бит
Тип развёртки : Прогрессивная
Бит/(Пиксели*Кадры) : 0.064
Размер потока : 1,21 Гбайт (75%)
Заголовок : S02E01 by ex2life
Библиотека кодирования : x264 core 148 r2715 7e75228
Настройки программы : cabac=1 / ref=3 / deblock=1:0:0 / analyse=0x1:0x111 / me=umh / subme=10 / psy=1 / psy_rd=1.00:0.00 / mixed_ref=1 / me_range=24 / chroma_me=1 / trellis=2 / 8x8dct=0 / cqm=0 / deadzone=21,11 / fast_pskip=1 / chroma_qp_offset=-2 / threads=8 / lookahead_threads=1 / sliced_threads=0 / nr=0 / decimate=1 / interlaced=0 / bluray_compat=0 / stitchable=1 / constrained_intra=0 / bframes=2 / b_pyramid=0 / b_adapt=2 / b_bias=0 / direct=3 / weightb=1 / open_gop=0 / weightp=2 / keyint=48 / keyint_min=25 / scenecut=0 / intra_refresh=0 / rc_lookahead=48 / rc=2pass / mbtree=1 / bitrate=3160 / ratetol=1.0 / qcomp=0.50 / qpmin=6 / qpmax=51 / qpstep=4 / cplxblur=20.0 / qblur=0.5 / vbv_maxrate=4740 / vbv_bufsize=6320 / nal_hrd=vbr / filler=0 / ip_ratio=1.40 / aq=1:1.00
Язык : English
Default : Да
Forced : Нет

Аудио #1
Идентификатор : 2
Формат : AC-3
Формат/Информация : Audio Coding 3
Коммерческое название : Dolby Digital
Идентификатор кодека : A_AC3
Продолжительность : 55 м. 11 с.
Вид битрейта : Постоянный
Битрейт : 384 Кбит/сек
Каналы : 6 каналов
Channel layout : L R C LFE Ls Rs
Частота : 48,0 КГц
Частота кадров : 31,250 кадров/сек (1536 SPF)
Битовая глубина : 16 бит
Метод сжатия : С потерями
Размер потока : 152 Мбайт (9%)
Заголовок : Russian
Язык : Russian
ServiceKind/String : Complete Main
Default : Да
Forced : Нет

Аудио #2
Идентификатор : 3
Формат : E-AC-3
Формат/Информация : Enhanced AC-3
Коммерческое название : Dolby Digital Plus
Идентификатор кодека : A_EAC3
Продолжительность : 55 м. 12 с.
Вид битрейта : Постоянный
Битрейт : 640 Кбит/сек
Каналы : 6 каналов
Channel layout : L R C LFE Ls Rs
Частота : 48,0 КГц
Частота кадров : 31,250 кадров/сек (1536 SPF)
Метод сжатия : С потерями
Размер потока : 253 Мбайт (15%)
Заголовок : English
Язык : English
ServiceKind/String : Complete Main
Default : Нет
Forced : Нет

Текст #1
Идентификатор : 4
Формат : UTF-8
Идентификатор кодека : S_TEXT/UTF8
Идентификатор кодека/Информация : UTF-8 Plain Text
Продолжительность : 54 м. 25 с.
Битрейт : 103 бит/сек
ElementCount : 745
Размер потока : 41,5 Кбайт (0%)
Заголовок : Russian
Язык : Russian
Default : Нет
Forced : Нет

Текст #2
Идентификатор : 5
Формат : UTF-8
Идентификатор кодека : S_TEXT/UTF8
Идентификатор кодека/Информация : UTF-8 Plain Text
Продолжительность : 51 м. 58 с.
Битрейт : 83 бит/сек
ElementCount : 930
Размер потока : 31,6 Кбайт (0%)
Заголовок : English
Язык : English
Default : Нет
Forced : Нет

Текст #3
Идентификатор : 6
Формат : UTF-8
Идентификатор кодека : S_TEXT/UTF8
Идентификатор кодека/Информация : UTF-8 Plain Text
Продолжительность : 54 м. 16 с.
Битрейт : 70 бит/сек
ElementCount : 730
Размер потока : 27,9 Кбайт (0%)
Заголовок : French
Язык : French
Default : Нет
Forced : Нет

Текст #4
Идентификатор : 7
Формат : UTF-8
Идентификатор кодека : S_TEXT/UTF8
Идентификатор кодека/Информация : UTF-8 Plain Text
Продолжительность : 54 м. 15 с.
Битрейт : 67 бит/сек
ElementCount : 680
Размер потока : 26,7 Кбайт (0%)
Заголовок : German
Язык : German
Default : Нет
Forced : Нет

Текст #5
Идентификатор : 8
Формат : UTF-8
Идентификатор кодека : S_TEXT/UTF8
Идентификатор кодека/Информация : UTF-8 Plain Text
Продолжительность : 54 м. 16 с.
Битрейт : 63 бит/сек
ElementCount : 723
Размер потока : 25,3 Кбайт (0%)
Заголовок : Spanish
Язык : Spanish
Default : Нет
Forced : Нет

Текст #6
Идентификатор : 9
Формат : UTF-8
Идентификатор кодека : S_TEXT/UTF8
Идентификатор кодека/Информация : UTF-8 Plain Text
Продолжительность : 54 м. 15 с.
Битрейт : 67 бит/сек
ElementCount : 725
Размер потока : 26,9 Кбайт (0%)
Заголовок : Italian
Язык : Italian
Default : Нет
Forced : Нет

Текст #7
Идентификатор : 10
Формат : UTF-8
Идентификатор кодека : S_TEXT/UTF8
Идентификатор кодека/Информация : UTF-8 Plain Text
Продолжительность : 54 м. 17 с.
Битрейт : 63 бит/сек
ElementCount : 736
Размер потока : 25,1 Кбайт (0%)
Заголовок : Czech
Язык : Czech
Default : Нет
Forced : Нет

Текст #8
Идентификатор : 11
Формат : UTF-8
Идентификатор кодека : S_TEXT/UTF8
Идентификатор кодека/Информация : UTF-8 Plain Text
Продолжительность : 54 м. 15 с.
Битрейт : 64 бит/сек
ElementCount : 671
Размер потока : 25,7 Кбайт (0%)
Заголовок : Danish
Язык : Danish
Default : Нет
Forced : Нет

Текст #9
Идентификатор : 12
Формат : UTF-8
Идентификатор кодека : S_TEXT/UTF8
Идентификатор кодека/Информация : UTF-8 Plain Text
Продолжительность : 54 м. 16 с.
Битрейт : 108 бит/сек
ElementCount : 762
Размер потока : 43,2 Кбайт (0%)
Заголовок : Greek
Язык : Greek
Default : Нет
Forced : Нет

Текст #10
Идентификатор : 13
Формат : UTF-8
Идентификатор кодека : S_TEXT/UTF8
Идентификатор кодека/Информация : UTF-8 Plain Text
Продолжительность : 54 м. 17 с.
Битрейт : 61 бит/сек
ElementCount : 742
Размер потока : 24,3 Кбайт (0%)
Заголовок : European Spanish
Язык : Spanish
Default : Нет
Forced : Нет

Текст #11
Идентификатор : 14
Формат : UTF-8
Идентификатор кодека : S_TEXT/UTF8
Идентификатор кодека/Информация : UTF-8 Plain Text
Продолжительность : 54 м. 16 с.
Битрейт : 52 бит/сек
ElementCount : 703
Размер потока : 21,0 Кбайт (0%)
Заголовок : Finnish
Язык : Finnish
Default : Нет
Forced : Нет

Текст #12
Идентификатор : 15
Формат : UTF-8
Идентификатор кодека : S_TEXT/UTF8
Идентификатор кодека/Информация : UTF-8 Plain Text
Продолжительность : 54 м. 17 с.
Битрейт : 65 бит/сек
ElementCount : 750
Размер потока : 26,0 Кбайт (0%)
Заголовок : Indonesian
Язык : Indonesian
Default : Нет
Forced : Нет

Текст #13
Идентификатор : 16
Формат : UTF-8
Идентификатор кодека : S_TEXT/UTF8
Идентификатор кодека/Информация : UTF-8 Plain Text
Продолжительность : 54 м. 15 с.
Битрейт : 54 бит/сек
ElementCount : 742
Размер потока : 21,6 Кбайт (0%)
Заголовок : Norwegian
Язык : Norwegian
Default : Нет
Forced : Нет

Текст #14
Идентификатор : 17
Формат : UTF-8
Идентификатор кодека : S_TEXT/UTF8
Идентификатор кодека/Информация : UTF-8 Plain Text
Продолжительность : 54 м. 18 с.
Битрейт : 60 бит/сек
ElementCount : 733
Размер потока : 24,0 Кбайт (0%)
Заголовок : Dutch
Язык : Dutch
Default : Нет
Forced : Нет

Текст #15
Идентификатор : 18
Формат : UTF-8
Идентификатор кодека : S_TEXT/UTF8
Идентификатор кодека/Информация : UTF-8 Plain Text
Продолжительность : 54 м. 16 с.
Битрейт : 61 бит/сек
ElementCount : 711
Размер потока : 24,4 Кбайт (0%)
Заголовок : Polish
Язык : Polish
Default : Нет
Forced : Нет

Текст #16
Идентификатор : 19
Формат : UTF-8
Идентификатор кодека : S_TEXT/UTF8
Идентификатор кодека/Информация : UTF-8 Plain Text
Продолжительность : 54 м. 16 с.
Битрейт : 68 бит/сек
ElementCount : 721
Размер потока : 27,4 Кбайт (0%)
Заголовок : Brazilian Portuguese
Язык : Portuguese
Default : Нет
Forced : Нет

Текст #17
Идентификатор : 20
Формат : UTF-8
Идентификатор кодека : S_TEXT/UTF8
Идентификатор кодека/Информация : UTF-8 Plain Text
Продолжительность : 54 м. 16 с.
Битрейт : 69 бит/сек
ElementCount : 750
Размер потока : 27,7 Кбайт (0%)
Заголовок : Portuguese
Язык : Portuguese
Default : Нет
Forced : Нет

Текст #18
Идентификатор : 21
Формат : UTF-8
Идентификатор кодека : S_TEXT/UTF8
Идентификатор кодека/Информация : UTF-8 Plain Text
Продолжительность : 54 м. 15 с.
Битрейт : 62 бит/сек
ElementCount : 671
Размер потока : 24,8 Кбайт (0%)
Заголовок : Swedish
Язык : Swedish
Default : Нет
Forced : Нет

Текст #19
Идентификатор : 22
Формат : UTF-8
Идентификатор кодека : S_TEXT/UTF8
Идентификатор кодека/Информация : UTF-8 Plain Text
Продолжительность : 54 м. 16 с.
Битрейт : 67 бит/сек
ElementCount : 730
Размер потока : 26,7 Кбайт (0%)
Заголовок : Turkish
Язык : Turkish
Default : Нет
Forced : Нет
скриншот  скриншот  скриншот  
Внимание! Раздача ведётся путём добавления новых серий; при каждом добавлении создаётся новый торрент. Чтобы начать докачку новой серии, пользователям необходимо сделать следующее:
(1) остановить скачивание,
(2) удалить старый торрент у себя из клиента (старые серии удалять не надо),
(3) скачать новый торрент и запустить его у себя в клиенте вместо старого, при этом указать клиенту путь в старую папку куда и должно происходить скачивание новых серий.

Ваш клиент при этом должен произвести хеширование (проверку) старой папки (если не производит сам - помогите ему сделать это), и будет докачивать только те серии которых у вас ещё нет. Старые серии при этом не удаляются, а продолжают раздаваться!

Eсли вы уже удалили старые серии, то предотвратить повторную закачку старых серий можно, отжав галочку в соответствующих местах при запуске нового торрента. По возможности, желательно не удалять старые серии как можно дольше чтобы релизёр не столько продолжал раздавать старые серии, а смог сконцентрироваться на новых.
pb.wtf



Скачать Леденящие душу приключения Сабрины через торрент https://i95.fastpic.ru/big/2018/1030/56/07495a5c0d738003dca93e2d66d89656.jpg Скачать фильм Леденящие душу приключения Сабрины через торрент бесплантно в хорошем качестве Описание: Сабрина Спеллман — получеловек и полуведьма, живущая в маленьком городе Гриндэйл. В Хэллоуин ей исполнится 16 лет и ей придётся ... 10 10 5
Info! Золотая раздача, скачанное не засчитывается.
Торрент: Зарегистрирован [2019-04-06 12:54] · скачан: 136 раз
Статус: √ проверено
Размер: 13.07 GB
Как cкачать? Как скачать Леденящие душу приключения Сабрины через торрент | qTorrent

% Раздел Тема Автор DL S | L
Зарубежные сериалы [ 11.79 GB ] Леденящие душу Сабрины / Chilling Adventures of Sabrina / Сезон: 2 / Серии 1-9 из 9 [2019 WEBRip1080p] [MVO] killermax2013 Скачать
1 | 0
Зарубежные сериалы [ 1.6 GB ] Леденящие душу Сабрины / The Chilling Adventures of Sabrina / Сезон: 2 / Серии: 1 из 9 [2019 WEBRip 1080p] MVO [TVShows] bober100 Скачать
1 | 0
Зарубежные сериалы [ 7.77 GB ] Леденящие душу Сабрины / The Chilling Adventures of Sabrina / Сезон: 2 / Серии: 1-9 из 9 [2019 WEB-DL 720p] MVO [Jaskier] bober100 Скачать
1 | 0
Зарубежные сериалы [ 6.44 GB ] Леденящие душу Сабрины / The Chilling Adventures of Sabrina / Сезон: 2 / Серии: 1-9 из 9 [2019 WEB-DLRip] MVO [Jaskier] bober100 Скачать
2 | 0
Зарубежные сериалы [ 7.23 GB ] Леденящие душу Сабрины / Chilling Adventures of Sabrina / Сезон: 2 / Серии: 1-9 из 9 [2019 WEBRip] killermax2013 Скачать
1 | 0

28-11-2019 20:33  

Отключить всю рекламу на сайте

    Дорогой пользователь! Огромная просьба, поблагодарите релизера, оцените раздачу и оставьте свои комментарий, если Вы скачали Леденящие душу приключения Сабрины через торрент бесплатно! Внесите свою лепту в развитие PiratBit!
    Комментировать посты могут только пользователи прошедшие не сложную регистрацию
    Показать сообщения:    

    Леденящие душу приключения Сабрины через торрент
    Скачать бесплатно Леденящие душу приключения Сабрины
    Леденящие душу приключения Сабрины скачать торрент
    Леденящие душу приключения Сабрины смотреть онлайн
    Cкачать фильм Леденящие душу приключения Сабрины бесплатно
    Леденящие душу приключения Сабрины скачать торрент в хорошем качестве
    Леденящие душу приключения Сабрины смотреть онлайн бесплатно в хорошем качестве


    Вы не можете начинать темы
    Вы не можете отвечать на сообщения
    Вы не можете редактировать свои сообщения
    Вы не можете удалять свои сообщения
    Вы не можете голосовать в опросах
    Вы не можете прикреплять файлы к сообщениям
    Вы можете скачивать файлы