Ссылка на приватное зеркало нашего сайта всего за 1$. Внимание количество ограничено!!!

2 сезон

iTunes

1 сезон

1

2 сезон

2 сезон

iTunes

1 сезон

RePack

30

Ultimate

ВАЖНО

ИГРА 18+

pack

RePack

MK11
pack

Забери бонус

RePack

jed

!!Акция!!

Alien_Rage

RePack

fifa19

RePack

Assassins Creed: Odyssey

RePack

NEED FOR SPEED™ PAYBACK

4 сезон

9 сезон

Бесстыжие 9 сезон

Все сериалы

все сериалы на PB.wtf

RePack

FAR CRY 5
  

Скрытые: Первородный / Hidden: Förstfödd (Hidden: Firstborn) / Сезон: 1 / Серии: 1-8 из 8 (Дэвид Беррон, Джонатан Сьоберг, Даниель ди Градо) [2019, Фэнтези, Триллер, WEB-DL 1080p] [MVO] pb.wtf

Скрытые: Первородный через торрент pb.wtf

Размер: 13.78 GB | Добавлен: 1 год 7 мес. назад | Торрент скачан:68 раз
Скачать  

05-04-2019 17:56 Скрытые: Первородный Скачать торрент  

Скрытые: Первородный / Hidden: Förstfödd (Hidden: Firstborn)

Год выпуска: 2019
Страна: Швеция
Жанр: Фэнтези, Триллеры
Продолжительность: 00:45:00

Перевод: Профессиональный (многоголосый закадровый) по заказу онлайн-сервиса ИВИ

Режиссёр: Дэвид Беррон, Джонатан Сьоберг, Даниель ди Градо

В ролях: Аугуст Витгенштайн, Изабелла Скорупко, Андерс Мосслинг, Филипп Александерсон, Эрик Эриксон, Гизем Эрдоган, Лиза Линнерторп, Пиа Тьелта, Саймон Дж. Бергер

Описание: Шведский студент Йонас чудом выживает в результате несчастного случая и открывает в себе невероятные способности. Чтобы выяснить их происхождение, Йонас расследует мистические тайны Стокгольма. Восьмисерийный триллер «Скрытые» основан на шведском романе-бестселлере писателя Филиппа Александерсона, обратившегося к скандинавским мифам и легендам. Экранизацию поставил режиссер Джонатан Сьоберг, вернувшийся к жанру сверхъестественных триллеров после сериала «Черное зеркало». Тайную и паранормальную жизнь Стокгольма раскрывают герои Аугуста Витгенштайна и Изабеллы Скорупко. Йонас учится на юридическом факультете, заботится о больной матери и подрабатывает на стройке. Стрессом и усталостью он объясняет свои приступы головной боли, даже не подозревая о том, как сильно он отличается от большинства людей. Невероятные открытия переворачивают его жизнь после несчастного случая...

скриншот  

Качество: WEB-DL 1080p
Контейнер: MKV
Видео: AVC, 1920x960 (2:1), 25 fps, ~5100 kbps
Аудио 1: Русский, AC3, 48 kHz, 2 ch, 192 kbps
Аудио 2: Шведский, AC3, 48 kHz, 6 ch, 384 kbps
Субтитры: Шведские (Full)
Реклама: Отсутствует
Полное имя : D:\RELEASE\Hidden.Firstborn.S01.1080p.WEB-DL.Rus.Swe.EniaHD\Hidden.Firstborn.S01E01.1080p.WEB-DL.Rus.Swe.EniaHD.mkv
Формат : Matroska
Версия формата : Version 4
Размер файла : 1,77 Гбайт
Продолжительность : 44 м. 34 с.
Общий поток : 5693 Кбит/сек
Дата кодирования : UTC 2019-04-03 19:34:32
Программа кодирования : mkvmerge v32.0.0 ('Astral Progressions') 32-bit
Библиотека кодирования : libebml v1.3.7 + libmatroska v1.5.0
Обложка : Yes
Attachments : cover.hidden.jpg

Видео
Идентификатор : 1
Формат : AVC
Формат/Информация : Advanced Video Codec
Профиль формата : High@L4
Настройки формата : CABAC / 4 Ref Frames
Параметр CABAC формата : Да
Параметр RefFrames формата : 4 кадра
Идентификатор кодека : V_MPEG4/ISO/AVC
Продолжительность : 44 м. 33 с.
Битрейт : 5115 Кбит/сек
Ширина : 1920 пикселей
Высота : 960 пикселей
Соотношение сторон : 2,000
Режим частоты кадров : Постоянный
Частота кадров : 25,000 кадров/сек
Цветовое пространство : YUV
Субдискретизация насыщенности : 4:2:0
Битовая глубина : 8 бит
Тип развёртки : Прогрессивная
Бит/(Пиксели*Кадры) : 0.111
Размер потока : 1,59 Гбайт (90%)
Язык : Swedish
Default : Да
Forced : Нет

Аудио #1
Идентификатор : 2
Формат : AC-3
Формат/Информация : Audio Coding 3
Коммерческое название : Dolby Digital
Идентификатор кодека : A_AC3
Продолжительность : 44 м. 34 с.
Вид битрейта : Постоянный
Битрейт : 192 Кбит/сек
Каналы : 2 канала
Channel layout : L R
Частота : 48,0 КГц
Частота кадров : 31,250 кадров/сек (1536 SPF)
Битовая глубина : 16 бит
Метод сжатия : С потерями
Размер потока : 61,2 Мбайт (3%)
Заголовок : AC3 2.0 @ 192 kbps - MVO
Язык : Russian
ServiceKind/String : Complete Main
Default : Да
Forced : Нет

Аудио #2
Идентификатор : 3
Формат : AC-3
Формат/Информация : Audio Coding 3
Коммерческое название : Dolby Digital
Идентификатор кодека : A_AC3
Продолжительность : 44 м. 34 с.
Вид битрейта : Постоянный
Битрейт : 384 Кбит/сек
Каналы : 6 каналов
Channel layout : L R C LFE Ls Rs
Частота : 48,0 КГц
Частота кадров : 31,250 кадров/сек (1536 SPF)
Битовая глубина : 16 бит
Метод сжатия : С потерями
Размер потока : 122 Мбайт (7%)
Заголовок : AC3 5.1 @ 384 kbps - Original
Язык : Swedish
ServiceKind/String : Complete Main
Default : Нет
Forced : Нет

Текст
Идентификатор : 4
Формат : UTF-8
Идентификатор кодека : S_TEXT/UTF8
Идентификатор кодека/Информация : UTF-8 Plain Text
Продолжительность : 42 м. 1 с.
Битрейт : 23 бит/сек
ElementCount : 235
Размер потока : 7,33 Кбайт (0%)
Заголовок : Full
Язык : Swedish
Default : Нет
Forced : Нет
скриншот  скриншот  скриншот  
pb.wtf



Скачать Скрытые: Первородный через торрент https://funkyimg.com/i/2SSFa.jpg Скачать фильм Скрытые: Первородный через торрент бесплантно в хорошем качестве Описание: Шведский студент Йонас чудом выживает в результате несчастного случая и открывает в себе невероятные способности. Чтобы выяснить ... 10 10 2
Торрент: Зарегистрирован [2019-04-05 17:56] · скачан: 68 раз
Статус: √ проверено
Размер: 13.78 GB
Как cкачать? Как скачать Скрытые: Первородный через торрент | qTorrent

% Раздел Тема Автор DL S | L
Зарубежные сериалы [ 7.61 GB ] Скрытые: Первородный / Hidden: Förstfödd / Сезон: 1 / Серии: 1-8 из 8 [2019 WEB-DL 720p] [MVO] killermax2013 Скачать
1 | 0

28-11-2019 20:33  

Отключить всю рекламу на сайте

05-04-2019 18:03 Скрытые: Первородный Скачать торрент  

Ты про этот писал если успею?Спасиб pb.wtf



05-04-2019 18:24 Скрытые: Первородный Скачать торрент  

rayl116rus писал(а):

Ты про этот писал если успею?Спасиб

и этот тоже ))pb.wtf



    Дорогой пользователь! Огромная просьба, поблагодарите релизера, оцените раздачу и оставьте свои комментарий, если Вы скачали Скрытые: Первородный через торрент бесплатно! Внесите свою лепту в развитие PiratBit!
    Комментировать посты могут только пользователи прошедшие не сложную регистрацию
    Показать сообщения:    

    Скрытые: Первородный через торрент
    Скачать бесплатно Скрытые: Первородный
    Скрытые: Первородный скачать торрент
    Скрытые: Первородный смотреть онлайн
    Cкачать фильм Скрытые: Первородный бесплатно
    Скрытые: Первородный скачать торрент в хорошем качестве
    Скрытые: Первородный смотреть онлайн бесплатно в хорошем качестве


    Вы не можете начинать темы
    Вы не можете отвечать на сообщения
    Вы не можете редактировать свои сообщения
    Вы не можете удалять свои сообщения
    Вы не можете голосовать в опросах
    Вы не можете прикреплять файлы к сообщениям
    Вы можете скачивать файлы