Ссылка на приватное зеркало нашего сайта всего за 1$. Внимание количество ограничено!!!

2 сезон

iTunes

1 сезон

1

2 сезон

2 сезон

iTunes

1 сезон

RePack

30

Новинка

ВАЖНО

ИГРА 18+

pack

RePack

MK11
pack

Забери бонус

RePack

jed

!!Акция!!

Alien_Rage

RePack

fifa19

RePack

Assassins Creed: Odyssey

RePack

NEED FOR SPEED™ PAYBACK

4 сезон

9 сезон

Бесстыжие 9 сезон

Все сериалы

все сериалы на PB.wtf

RePack

FAR CRY 5
  

Жизнь подонков / Lowlife (Райан Проуз) [2017, Ужасы, триллер, драма, комедия, криминал, BD Remux 1080р] MVO [HDRezka Studio] pb.wtf

Жизнь подонков через торрент pb.wtf

Размер: 22.29 GB | Добавлен: 1 год 7 мес. назад | Торрент скачан:8 раз
Скачать  

05-04-2019 21:31 Жизнь подонков Скачать торрент  

Жизнь подонков / Lowlife Год выпуска: 2017
Страна: США
Жанр: Ужасы, триллер, драма, комедия, криминал
Продолжительность: 01:36:21
Перевод: Профессиональный (многоголосый) | HDRezka Studio
Субтитры: Английские (полные, хардсаб на испанскую речь)

Режиссер: Райан Проуз

rating

В ролях:

Ники Мишо, Рикардо Адам Зарате, Джон Освальд, Шэй Огбонна, Сантана Демпси, Марк Бёрнэм, Хосе Росете, Клэйтон Карденас, Оливия Бенавидес

Описание:

В центре сюжета троица совершенно разных людей: вышибала по кличке Эль-Монстро, носящий безвкусный костюм, хозяйка отеля и молодой нацист. Они бросают вызов местному криминальному авторитету, который сотрудничает с коррумпированным полицейским, отлавливающим мексиканских нелегалов. Арестовав очередную группу нарушителей, продажный коп отвозит их прямиком к своему боссу, который, жестоко расправившись с несчастными, расчленяет тела на органы для последующей продажи. К тому же отъявленный негодяй держит в страхе всю округу, но наши герои твердо намерены положить этому конец.

Качество: BD Remux 1080р
Формат: MKV

Видео: MPEG-4 AVC, 1080p, 1920x1080 (16:9), 29856 kbps, 23.976 fps
Аудио#1: АС3, 2 ch, 48 kHz, 192 kbps HDrezka Studio
Аудио#2: DTS-HD MA, 6 ch, 48 kHz, 3072 kbps, 24-bit (DTS Core 6 ch, 48 kHz, 1509 kbps) English
скриншот  скриншот  скриншот  скриншот  скриншот  

General
Unique ID : 86496325566097047103413779548986664646 (0x4112961AF3264380FFFF7DC12247E6C6)
Complete name : Lowlife.2017.Remux.mkv
Format : Matroska
Format version : Version 4 / Version 2
File size : 22.3 GiB
Duration : 1 h 36 min
Overall bit rate mode : Variable
Overall bit rate : 33.1 Mb/s
Encoded date : UTC 2019-02-05 11:08:59
Writing application : mkvmerge v20.0.0 ('I Am The Sun') 64-bit
Writing library : libebml v1.3.5 + libmatroska v1.4.8

Video
ID : 1
Format : AVC
Format/Info : Advanced Video Codec
Format profile : High@L4.1
Format settings : CABAC / 4 Ref Frames
Format settings, CABAC : Yes
Format settings, RefFrames : 4 frames
Codec ID : V_MPEG4/ISO/AVC
Duration : 1 h 36 min
Bit rate mode : Variable
Bit rate : 29.9 Mb/s
Maximum bit rate : 34.0 Mb/s
Width : 1 920 pixels
Height : 1 080 pixels
Display aspect ratio : 16:9
Frame rate mode : Constant
Frame rate : 23.976 (24000/1001) FPS
Color space : YUV
Chroma subsampling : 4:2:0
Bit depth : 8 bits
Scan type : Progressive
Bits/(Pixel*Frame) : 0.601
Stream size : 20.1 GiB (90%)
Language : English
Default : Yes
Forced : No

Audio #1
ID : 2
Format : AC-3
Format/Info : Audio Coding 3
Codec ID : A_AC3
Duration : 1 h 36 min
Bit rate mode : Constant
Bit rate : 192 kb/s
Channel(s) : 2 channels
Channel positions : Front: L R
Sampling rate : 48.0 kHz
Frame rate : 31.250 FPS (1536 SPF)
Bit depth : 16 bits
Compression mode : Lossy
Stream size : 132 MiB (1%)
Language : Russian
Service kind : Complete Main
Default : Yes
Forced : No

Audio #2
ID : 3
Format : DTS
Format/Info : Digital Theater Systems
Format profile : MA / Core
Codec ID : A_DTS
Duration : 1 h 36 min
Bit rate mode : Variable / Constant
Bit rate : 3 072 kb/s / 1 509 kb/s
Channel(s) : 6 channels
Channel positions : Front: L C R, Side: L R, LFE
Sampling rate : 48.0 kHz
Frame rate : 93.750 FPS (512 SPF)
Bit depth : 24 bits
Compression mode : Lossless / Lossy
Stream size : 2.07 GiB (9%)
Language : English
Default : No
Forced : No

Text
ID : 4
Format : UTF-8
Codec ID : S_TEXT/UTF8
Codec ID/Info : UTF-8 Plain Text
Duration : 1 h 30 min
Bit rate : 36 b/s
Count of elements : 931
Stream size : 24.0 KiB (0%)
Language : English
Default : No
Forced : No

Menu
00:00:00.000 : :00:00:00.000
00:06:36.813 : :00:06:36.813
00:09:46.836 : :00:09:46.836
00:15:34.016 : :00:15:34.016
00:21:26.827 : :00:21:26.827
00:29:57.921 : :00:29:57.921
00:38:26.095 : :00:38:26.095
00:50:52.299 : :00:50:52.299
01:00:20.492 : :01:00:20.492
01:11:12.268 : :01:11:12.268
01:17:44.785 : :01:17:44.785
01:32:26.791 : :01:32:26.791

pb.wtf



Скачать Жизнь подонков через торрент https://i109.fastpic.ru/big/2019/0218/f5/cb7a21264f20344be5a3b621475f8af5.jpg Скачать фильм Жизнь подонков через торрент бесплантно в хорошем качестве Описание: В центре сюжета троица совершенно разных людей: вышибала по кличке Эль-Монстро, носящий безвкусный костюм, хозяйка отеля и ... 7 10 3
Info! Золотая раздача, скачанное не засчитывается.
Торрент: Зарегистрирован [2019-04-05 21:31] · скачан: 8 раз
Статус: T временная
Размер: 22.29 GB
Как cкачать? Как скачать Жизнь подонков через торрент | qTorrent

% Раздел Тема Автор DL S | L
T Фильмы 2017 [DVDrip, WEB-DLRip, HDrip] (DUB, MVO) [ 1.46 GB ] Жизнь подонков / Lowlife [2017 BDRip] MVO [HDRezka Studio] bober100 Скачать
1 | 0
T Фильмы 2017 [DVDrip, WEB-DLRip, HDrip] (DUB, MVO) [ 1.7 GB ] Жизнь подонков / Lowlife [2017 BDRip-AVC] MVO [HDRezka Studio] bober100 Скачать
1 | 0

28-11-2019 20:33  

Отключить всю рекламу на сайте

    Дорогой пользователь! Огромная просьба, поблагодарите релизера, оцените раздачу и оставьте свои комментарий, если Вы скачали Жизнь подонков через торрент бесплатно! Внесите свою лепту в развитие PiratBit!
    Комментировать посты могут только пользователи прошедшие не сложную регистрацию
    Показать сообщения:    

    Жизнь подонков через торрент
    Скачать бесплатно Жизнь подонков
    Жизнь подонков скачать торрент
    Жизнь подонков смотреть онлайн
    Cкачать фильм Жизнь подонков бесплатно
    Жизнь подонков скачать торрент в хорошем качестве
    Жизнь подонков смотреть онлайн бесплатно в хорошем качестве


    Вы не можете начинать темы
    Вы не можете отвечать на сообщения
    Вы не можете редактировать свои сообщения
    Вы не можете удалять свои сообщения
    Вы не можете голосовать в опросах
    Вы не можете прикреплять файлы к сообщениям
    Вы можете скачивать файлы