Достать ножи: Стеклянная луковица

MVO

Добыча

Дубляж

Уэнсдэй

1 сезон

Тор

Дубляж

13 клиническая

1 сезон

Жестокая ночь

MVO

Одни из нас

1 сезон

Deluxe

pack

Рекомендуем

30

Пиратка

ВАЖНО

ВАЖНО

Ghostwire

Пиратка

jed

RePack

nioh2

RePack

RDR2

RePack

NEED FOR SPEED™ PAYBACK

RePack

скачать торрент

Кинопоиск HD

Острые козырьки 6 сезон

6 сезон

FAR CRY 6

RePack

скачать торрент

Лицензия

скачать торрент

MVO

1

1 сезон

скачать торрент

1 сезон

скачать торрент

Лицензия

  

Мотылек / Papillon (Михаэль Ноер) [2017, триллер, драма, криминал, детектив, BDRip 720p] Дубляж [Лицензия]

Мотылек через торрент pb.wtf

Размер: 10 GB | Добавлен: 3 года 9 мес. назад | Торрент скачан:324 раза
Смотреть онлайн | Скачать | Поддержите нас   

05-04-2019 22:10 Мотылек Скачать торрент  

Мотылек / Papillon
Год выпуска: 2017
Страна: Чехия, Испания, США
Жанр: триллер, драма, криминал, детектив
Продолжительность: 02:13:14
Перевод: Дублированный | Лицензия
Субтитры: Русские (full), английские

Режиссер: Михаэль Ноер

rating

В ролях:

Чарли Ханнэм, Рами Малек, Томми Флэнаган, Ив Хьюсон, Роланд Мюллер, Nina Senicar, Майкл Сока, Кристофер Фэйрбэнк, Йорик ван Вагенинген, Йоэль Басман

Описание:

Авантюрист по прозвищу Мотылек получает пожизненный срок в тюрьме для особо опасных преступников - за убийство, которого он не совершал. Когда вокруг враги, а надежда угасает с каждым днём заключения, лишь сила духа может помочь Мотыльку обрести свободу.

Качество: BDRip 720p
Формат: MKV

Видео: MPEG-4 AVC, 1280x536, 7957 Kbit/s, 23.976 fps
Аудио#1: 48 kHz, DTS, 5.1, 1510 Kbps | Дублированный | RUS |
Аудио#2: 48 kHz, AC3, 5.1, 640 Kbps | Дублированный | RUS |
Аудио#3: 48 kHz, AC3, 5.1, 640 Kbps | Оригинал | ENG |
скриншот  скриншот  скриншот  скриншот  скриншот  

General
Unique ID : 42630026574597576648983032188827712767 (0x20123E95A6D778B9A11B9E4503F9BCFF)
Complete name : D:Video111Papillon.2017.BDRip.720p.seleZen.mkv
Format : Matroska
Format version : Version 4
File size : 10.0 GiB
Duration : 2 h 13 min
Overall bit rate : 10.7 Mb/s
Movie name : Papillon 2017 from селезень
Encoded date : UTC 2019-04-05 09:41:36
Writing application : mkvmerge v32.0.0 ('Astral Progressions') 64-bit
Writing library : libebml v1.3.7 + libmatroska v1.5.0

Video
ID : 1
Format : AVC
Format/Info : Advanced Video Codec
Format profile : [email protected]
Format settings : CABAC / 12 Ref Frames
Format settings, CABAC : Yes
Format settings, ReFrames : 12 frames
Codec ID : V_MPEG4/ISO/AVC
Duration : 2 h 13 min
Bit rate : 7 957 kb/s
Width : 1 280 pixels
Height : 536 pixels
Display aspect ratio : 2.40:1
Frame rate mode : Constant
Frame rate : 23.976 (24000/1001) FPS
Color space : YUV
Chroma subsampling : 4:2:0
Bit depth : 8 bits
Scan type : Progressive
Bits/(Pixel*Frame) : 0.484
Stream size : 7.41 GiB (74%)
Title : CRiSC
Writing library : x264 core 157 r2935 545de2f
Encoding settings : cabac=1 / ref=12 / deblock=1:-3:-3 / analyse=0x3:0x133 / me=umh / subme=10 / psy=1 / psy_rd=1.05:0.00 / mixed_ref=1 / me_range=64 / chroma_me=1 / trellis=2 / 8x8dct=1 / cqm=0 / deadzone=21,11 / fast_pskip=0 / chroma_qp_offset=-2 / threads=12 / lookahead_threads=2 / sliced_threads=0 / nr=0 / decimate=0 / interlaced=0 / bluray_compat=0 / constrained_intra=0 / bframes=8 / b_pyramid=2 / b_adapt=2 / b_bias=0 / direct=3 / weightb=1 / open_gop=0 / weightp=2 / keyint=250 / keyint_min=23 / scenecut=40 / intra_refresh=0 / rc_lookahead=40 / rc=crf / mbtree=0 / crf=15.5 / qcomp=0.65 / qpmin=0 / qpmax=69 / qpstep=4 / vbv_maxrate=50000 / vbv_bufsize=62500 / crf_max=0.0 / nal_hrd=none / filler=0 / ip_ratio=1.25 / pb_ratio=1.15 / aq=3:0.85 / zones=20,989,crf=15/16017,16117,crf=15/50853,50887,crf=15/67232,67367,crf=15/72721,72837,crf=15/73177,73825,crf=15/105615,106116,crf=15/118525,118570,crf=15/130480,132193,crf=15/132446,132500,crf=15/136318,145029,crf=15/162866,164055,crf=15/165089,165495,crf=15/166355,166907,crf=15/168666,177120,crf=15
Language : English
Default : Yes
Forced : No
Color range : Limited
Color primaries : BT.709
Transfer characteristics : BT.709
Matrix coefficients : BT.709

Audio #1
ID : 2
Format : DTS
Format/Info : Digital Theater Systems
Codec ID : A_DTS
Duration : 2 h 13 min
Bit rate mode : Constant
Bit rate : 1 509 kb/s
Channel(s) : 6 channels
Channel layout : C L R Ls Rs LFE
Sampling rate : 48.0 kHz
Frame rate : 93.750 FPS (512 SPF)
Bit depth : 24 bits
Compression mode : Lossy
Stream size : 1.40 GiB (14%)
Title : Дубляж [License]
Language : Russian
Default : Yes
Forced : Yes

Audio #2
ID : 3
Format : AC-3
Format/Info : Audio Coding 3
Commercial name : Dolby Digital
Codec ID : A_AC3
Duration : 2 h 13 min
Bit rate mode : Constant
Bit rate : 640 kb/s
Channel(s) : 6 channels
Channel layout : L R C LFE Ls Rs
Sampling rate : 48.0 kHz
Frame rate : 31.250 FPS (1536 SPF)
Bit depth : 16 bits
Compression mode : Lossy
Stream size : 610 MiB (6%)
Title : Дубляж [License]
Language : Russian
Service kind : Complete Main
Default : No
Forced : No

Audio #3
ID : 4
Format : AC-3
Format/Info : Audio Coding 3
Commercial name : Dolby Digital
Codec ID : A_AC3
Duration : 2 h 13 min
Bit rate mode : Constant
Bit rate : 640 kb/s
Channel(s) : 6 channels
Channel layout : L R C LFE Ls Rs
Sampling rate : 48.0 kHz
Frame rate : 31.250 FPS (1536 SPF)
Bit depth : 16 bits
Compression mode : Lossy
Stream size : 610 MiB (6%)
Title : Original
Language : English
Service kind : Complete Main
Default : No
Forced : No

Text #1
ID : 5
Format : UTF-8
Codec ID : S_TEXT/UTF8
Codec ID/Info : UTF-8 Plain Text
Duration : 2 h 4 min
Bit rate : 48 b/s
Count of elements : 964
Stream size : 43.9 KiB (0%)
Title : Full
Language : Russian
Default : No
Forced : No

Text #2
ID : 6
Format : UTF-8
Codec ID : S_TEXT/UTF8
Codec ID/Info : UTF-8 Plain Text
Duration : 2 h 1 min
Bit rate : 29 b/s
Count of elements : 982
Stream size : 25.8 KiB (0%)
Title : Full
Language : English
Default : No
Forced : No

Text #3
ID : 7
Format : UTF-8
Codec ID : S_TEXT/UTF8
Codec ID/Info : UTF-8 Plain Text
Duration : 2 h 12 min
Bit rate : 32 b/s
Count of elements : 1230
Stream size : 31.2 KiB (0%)
Title : SDH
Language : English
Default : No
Forced : No

Menu
00:00:00.000 : en:00:00:00.000
00:08:16.621 : en:00:08:16.621
00:16:47.590 : en:00:16:47.590
00:21:25.910 : en:00:21:25.910
00:26:31.965 : en:00:26:31.965
00:30:39.796 : en:00:30:39.796
00:34:10.799 : en:00:34:10.799
00:44:51.147 : en:00:44:51.147
00:52:54.588 : en:00:52:54.588
00:59:03.665 : en:00:59:03.665
01:04:12.891 : en:01:04:12.891
01:12:18.334 : en:01:12:18.334
01:20:35.372 : en:01:20:35.372
01:24:08.418 : en:01:24:08.418
01:35:19.547 : en:01:35:19.547
01:40:53.047 : en:01:40:53.047
01:47:10.883 : en:01:47:10.883
01:57:03.016 : en:01:57:03.016
02:02:58.913 : en:02:02:58.913
02:05:57.550 : en:02:05:57.550




Скачать Мотылек через торрент https://c.radikal.ru/c26/1811/5c/aa7cf48d7a50.png Скачать, смотреть онлайн Мотылек бесплантно в хорошем качестве Описание: Авантюрист по прозвищу Мотылек получает пожизненный срок в тюрьме для особо опасных преступников - за убийство, которого он не ... 10 10 6
Info! Золотая раздача, скачанное не засчитывается.
Торрент: Зарегистрирован [2019-04-05 22:10] · скачан: 324 раз
Статус: √ проверено
Размер: 10 GB
Как cкачать? Как скачать Мотылек через торрент | UTorrent

% Раздел Тема Автор DL S | L
Фильмы (HD 720p, 1080p) (48-60 fps) [ 26.89 GB ] Мотылек / Papillon | iTunes | 1080p, 60fps sheker187 Скачать
1 | 0
Фильмы (Blu-ray, BD-Remux, HDDVD) [ 36.96 GB ] Мотылек / Papillon | Лицензия | BD Remux 1080p bober100 Скачать
1 | 0
Фильмы [HD 720p, 1080p] (Хороший звук DUB, MVO) [ 14.96 GB ] Мотылек / Papillon | Лицензия | 1080p bober100 Скачать
1 | 0
Фильмы 2017 [DVDrip, WEB-DLRip, HDrip] (DUB, MVO) [ 1.46 GB ] Мотылек / Papillon | Лицензия | BDRip Twi7ter Скачать
3 | 1
Фильмы 2017 [DVDrip, WEB-DLRip, HDrip] (DUB, MVO) [ 2.18 GB ] Мотылек / Papillon | Лицензия | BDRip Twi7ter Скачать
1 | 0
Фильмы [HD 720p, 1080p] (Хороший звук DUB, MVO) [ 4.73 GB ] Мотылек / Papillon | iTunes | 1080p, HEVC (10bit Мичман37 Скачать
1 | 0
Видео для КПК и Смартфонов [ 506 MB ] Мотылек / Papillon | iTunes | HDRip, КПК sergey82 Скачать
1 | 0

28-11-2019 20:33  


Отключить вcю реклaмy на сайте, в т.ч. и в плеере онлайн просмотра!

    Дорогой пользователь! Огромная просьба, поблагодарите релизера, оцените раздачу и оставьте свои комментарий, если Вы скачали Мотылек через торрент бесплатно!!
    Комментировать посты могут только пользователи прошедшие не сложную регистрацию
    Показать сообщения:    


    Мотылек через торрент
    Скачать бесплатно Мотылек
    Мотылек скачать торрент
    Мотылек смотреть онлайн
    Cкачать фильм Мотылек бесплатно
    Мотылек скачать торрент в хорошем качестве
    Мотылек смотреть онлайн бесплатно в хорошем качестве
    Вы не можете начинать темы
    Вы не можете отвечать на сообщения
    Вы не можете редактировать свои сообщения
    Вы не можете удалять свои сообщения
    Вы не можете голосовать в опросах
    Вы не можете прикреплять файлы к сообщениям
    Вы можете скачивать файлы
    Мотылек / Papillon [2017, триллер, драма, криминал, детектив, BDRip 720p] Дубляж [Лицензия] смотреть онлайн, скачать торрент picoco.icu