Ссылка на приватное зеркало нашего сайта всего за 1$. Внимание количество ограничено!!!

2 сезон

iTunes

1 сезон

1

iTunes

iTunes

iTunes

1 сезон

RePack

30

ИГРА 18+

pack

ВАЖНО

!!Акция!!

Alien_RageХит недели

RePack

MK11
pack

Забери бонус

RePack

jed

!!Акция!!

Alien_Rage

RePack

fifa19

RePack

Assassins Creed: Odyssey

RePack

NEED FOR SPEED™ PAYBACK

4 сезон

9 сезон

Бесстыжие 9 сезон

Все сериалы

все сериалы на PB.wtf

RePack

FAR CRY 5
  

На краю / Сезон: 1 / Серии: 1-8 из 8 (Евгений Лаврентьев) [2019, драма, мелодрама, HDTVRip 720p] pb.wtf

На краю через торрент pb.wtf

Размер: 11.65 GB | Добавлен: 1 год 6 мес. назад | Торрент скачан:77 раз
Скачать  

05-04-2019 22:23 На краю Скачать торрент  

На краю Год выпуска: 2019
Страна: Россия
Жанр: драма, мелодрама
Продолжительность: ~ 00:51:00
Субтитры: отсутствуют

Режиссер: Евгений Лаврентьев




В ролях:

Диана Пожарская, Софья Шуткина, Феруза Рузиева, Кирилл Дыцевич, Наташа Швец (II), Николай Фоменко, Евгения Дмитриева, Владимир Верёвочкин, Юлия Ауг, Никита Тезин, Артём Шкляев, Бесо Гатаев, Дмитрий Муляр

Описание:

Студентка престижного столичного вуза Лена живёт в благополучной семье. Но её мир рушится, когда она узнаёт о предательстве любимого человека, с которым мечтала связать жизнь. Героиня попадает под колёса автомобиля и оказывается в больнице, где знакомится с Русланом. Вскоре после выписки Лену ждёт новое потрясение. Выясняется, что отец тоже неверен матери. Обожжённая двойным предательством, Лена всё больше привязывается к новому знакомому. Она ещё не знает, что Руслан - вербовщик, который ведёт страшную игру. Влюблённая Лена меняет веру, принимает ислам и отправляется на Родину любимого. Отец Лены в отчаянии бросается разыскивать дочь. Следы приводят его в Халифат...

Качество: HDTVRip 720p
Формат: MKV

Видео: 1280х544 (16:9), 25 fps, AVC MPEG-4 (x264), High@L4.1 ~ 4000 kbps , 0.152 bit/pixel
Аудио: AC3 Dolby Digital, 48 kHz, 2/0 (L,R) ch, 192 kbp
скриншот  скриншот  скриншот  скриншот  

General
Unique ID : 203298725492661738459583005929777290808 (0x98F1E909F56DC281B24443B0A0DE5E38)
Complete name : D:\Na.krayu.2018.HDTVRip.(720p).ExKinoRay\Na.krayu.(01.seriya).2018.HDTVRip.(720p).ExKinoRay.mkv
Format : Matroska
Format version : Version 4 / Version 2
File size : 1.49 GiB
Duration : 50 min 47 s
Overall bit rate : 4 193 kb/s
Encoded date : UTC 2019-04-03 02:08:25
Writing application : mkvmerge v7.8.0 ('River Man') 32bit built on Mar 27 2015 16:18:02
Writing library : libebml v1.3.1 + libmatroska v1.4.2

Video
ID : 1
Format : AVC
Format/Info : Advanced Video Codec
Format profile : High@L4.1
Format settings : CABAC / 9 Ref Frames
Format settings, CABAC : Yes
Format settings, ReFrames : 9 frames
Codec ID : V_MPEG4/ISO/AVC
Duration : 50 min 47 s
Bit rate : 4 000 kb/s
Width : 1 280 pixels
Height : 544 pixels
Display aspect ratio : 2.35:1
Frame rate mode : Constant
Frame rate : 25.000 FPS
Color space : YUV
Chroma subsampling : 4:2:0
Bit depth : 8 bits
Scan type : Progressive
Bits/(Pixel*Frame) : 0.230
Stream size : 1.42 GiB (95%)
Writing library : x264 core 146 r2538 121396c
Encoding settings : cabac=1 / ref=9 / deblock=1:-3:-3 / analyse=0x3:0x133 / me=umh / subme=10 / psy=1 / psy_rd=1.00:0.20 / mixed_ref=1 / me_range=32 / chroma_me=1 / trellis=2 / 8x8dct=1 / cqm=0 / deadzone=21,11 / fast_pskip=1 / chroma_qp_offset=-3 / threads=12 / lookahead_threads=8 / sliced_threads=0 / nr=0 / decimate=1 / interlaced=0 / bluray_compat=0 / constrained_intra=0 / bframes=11 / b_pyramid=2 / b_adapt=2 / b_bias=0 / direct=1 / weightb=1 / open_gop=0 / weightp=2 / keyint=250 / keyint_min=25 / scenecut=40 / intra_refresh=0 / rc=2pass / mbtree=0 / bitrate=4000 / ratetol=1.0 / qcomp=0.60 / qpmin=0 / qpmax=69 / qpstep=4 / cplxblur=20.0 / qblur=0.5 / ip_ratio=1.40 / pb_ratio=1.30 / aq=3:1.00
Default : No
Forced : No
Color range : Limited
Color primaries : BT.709
Transfer characteristics : BT.709
Matrix coefficients : BT.709

Audio
ID : 2
Format : AC-3
Format/Info : Audio Coding 3
Codec ID : A_AC3
Duration : 50 min 47 s
Bit rate mode : Constant
Bit rate : 192 kb/s
Channel(s) : 2 channels
Channel positions : Front: L R
Sampling rate : 48.0 kHz
Frame rate : 31.250 FPS (1536 SPF)
Bit depth : 16 bits
Compression mode : Lossy
Stream size : 69.7 MiB (5%)
Language : Russian
Service kind : Complete Main
Default : Yes
Forced : Yes

pb.wtf



Скачать На краю через торрент https://a.radikal.ru/a43/1904/87/14e1c31724c1.jpg Скачать фильм На краю через торрент бесплантно в хорошем качестве Описание: Студентка престижного столичного вуза Лена живёт в благополучной семье. Но её мир рушится, когда она узнаёт о предательстве ... 10 10 2
Торрент: Зарегистрирован [2019-04-05 22:23] · скачан: 77 раз
Статус: √ проверено
Размер: 11.65 GB
Как cкачать? Как скачать На краю через торрент | qTorrent

% Раздел Тема Автор DL S | L
Наши сериалы [ 21.25 GB ] На краю / Сезон: 1 / Серии: 1-8 из 8 [2019 HDTV 1080i] bober100 Скачать
1 | 0
Наши сериалы [ 5.05 GB ] На краю / Сезон: 1 / Серии: 1-8 из 8 [2019 WEB-DLRip] bober100 Скачать
1 | 0
Наши сериалы [ 5.03 GB ] На краю / Сезон: 1 / Серии: 1-8 из 8 [2019 WEB-DLRip-AVC] bober100 Скачать
1 | 0
Наши сериалы [ 4.69 GB ] На краю / Сезон: 1 / Серии: 1-8 из 8 [2019 SATRip] bober100 Скачать
1 | 0

28-11-2019 20:33  

Отключить всю рекламу на сайте

    Дорогой пользователь! Огромная просьба, поблагодарите релизера, оцените раздачу и оставьте свои комментарий, если Вы скачали На краю через торрент бесплатно! Внесите свою лепту в развитие PiratBit!
    Комментировать посты могут только пользователи прошедшие не сложную регистрацию
    Показать сообщения:    

    На краю через торрент
    Скачать бесплатно На краю
    На краю скачать торрент
    На краю смотреть онлайн
    Cкачать фильм На краю бесплатно
    На краю скачать торрент в хорошем качестве
    На краю смотреть онлайн бесплатно в хорошем качестве


    Вы не можете начинать темы
    Вы не можете отвечать на сообщения
    Вы не можете редактировать свои сообщения
    Вы не можете удалять свои сообщения
    Вы не можете голосовать в опросах
    Вы не можете прикреплять файлы к сообщениям
    Вы можете скачивать файлы