2 сезон

iTunes

1 сезон

1

iTunes

iTunes

iTunes

1 сезон

RePack

30

ИГРА 18+

pack

ВАЖНО

!!Акция!!

Alien_RageХит недели

RePack

MK11
pack

Забери бонус

RePack

jed

!!Акция!!

Alien_Rage

RePack

fifa19

RePack

Assassins Creed: Odyssey

RePack

NEED FOR SPEED™ PAYBACK

4 сезон

9 сезон

Бесстыжие 9 сезон

Все сериалы

все сериалы на PB.wtf

RePack

FAR CRY 5
  

Дама треф / Серии: 1-2 из 2 (Филипп Коршунов) [2019, Детектив, SATRip] pb.wtf

Дама треф через торрент pb.wtf

Размер: 1.17 GB | Добавлен: 1 год 6 мес. назад | Торрент скачан:83 раза
Скачать  

05-04-2019 22:40 Дама треф Скачать торрент  

Дама трефГод выпуска: 2019
Страна: Россия
Жанр: Детектив
Продолжительность: ~ 00:46:00
Субтитры: отсутствуют

Режиссер: Филипп Коршунов



В ролях:

Андрей Чернышов, Екатерина Соломатина, Евгения Ахременко, Наиль Абдрахманов, Александр Шам, Артур Бичахчян, Мила Колесникова, Сергей Галахов, Дмитрий Смирнов (V), Михаил Дорожкин, Анна Сафонова, Владимир Малков, Павел Прибыток, Павел Абдалов, Сергей Холмогоров, Михаил Владимиров, Екатерина Вуличенко, Роман Куперман, Антон Вохмин, Денис Яковлев, Сергей Погосян, Константин Быков

Описание:

Майор Павел Викторов назначен начальником ГУВД в город своего детства – тихий подмосковный Валуев. Его жена Ксения планирует устроить мужа на новом месте и вернуться в Москву – там её работа, там сын-первокурсник. Но человек, как известно, предполагает... Патриархальный Валуев встречает Викторовых пожаром, в котором гибнут двое молодых цыган. Местные правоохранители говорят о несчастном случае, цыганский барон – об убийстве, которое "как обычно" не будет раскрыто. Расследуя с помощью Ксении это простое , на первый взгляд, дело, Павел обнаруживает тайную криминальную жизнь Валуева, продолжающуюся не одно десятилетие... От идеи "гостевого брака" Ксении тоже приходится отказаться. Оказывается, в Валуеве служит их бывшая однокурсница Татьяна – первая любовь Павла. Сразу не разобрать, чего Татьяна хочет больше: вернуть Павла или втянуть честного полицейского в тёмные дела. Но Ксении ясно, что мужа надо спасать...

Качество: SATRip
Формат: AVI

Видео: 720x400 (1.80:1), 25 fps, XviD build 73 ~1650 kbps avg, 0.23 bit/pixel
Аудио: 48 kHz, MPEG Layer 3, 2 ch, ~192.00 kbps avg
скриншот  скриншот  скриншот  скриншот  

Общее
Полное имя : D:\Dama.tref.2019.XviD.SATRip.25Kuzmich\Dama.tref.(01.seriya.iz.02).XviD.SATRip.25Kuzmich.avi
Формат : AVI
Формат/Информация : Audio Video Interleave
Размер файла : 600 Мбайт
Продолжительность : 45 м. 21 с.
Общий поток : 1849 Кбит/сек
Программа кодирования : VirtualDubMod 1.5.10.3 | www.virtualdub-fr.org || (build 2550/release)
Библиотека кодирования : VirtualDubMod build 2550/release

Видео
Идентификатор : 0
Формат : MPEG-4 Visual
Профиль формата : Advanced Simple@L5
Параметр BVOP формата : 1
Параметр QPel формата : Нет
Параметр GMC формата : Без точки перехода
Параметр матрицы формата : Default (MPEG)
Идентификатор кодека : XVID
Идентификатор кодека/Подсказка : XviD
Продолжительность : 45 м. 21 с.
Битрейт : 1674 Кбит/сек
Ширина : 720 пикселей
Высота : 400 пикселей
Соотношение сторон : 16:9
Частота кадров : 25,000 кадров/сек
Цветовое пространство : YUV
Субдискретизация насыщенности : 4:2:0
Битовая глубина : 8 бит
Тип развёртки : Прогрессивная
Метод сжатия : С потерями
Бит/(Пиксели*Кадры) : 0.219
Размер потока : 511 Мбайт (85%)
Библиотека кодирования : XviD 73

Аудио
Идентификатор : 1
Формат : MPEG Audio
Версия формата : Version 1
Профиль формата : Layer 3
Режим : Joint stereo
Идентификатор кодека : 55
Идентификатор кодека/Подсказка : MP3
Продолжительность : 45 м. 21 с.
Вид битрейта : Постоянный
Битрейт : 192 Кбит/сек
Каналы : 2 канала
Частота : 48,0 КГц
Метод сжатия : С потерями
Размер потока : 62,3 Мбайт (10%)
Выравнивание : Соединение по промежуткам
Библиотека кодирования : LAME3.99r
Настройки программы : -m j -V 4 -q 2 -lowpass 18.6 -b 192

pb.wtf



Скачать Дама треф через торрент https://i110.fastpic.ru/big/2019/0405/d3/89c1bb534ae3eadc0bd067f91393d1d3.jpg Скачать фильм Дама треф через торрент бесплантно в хорошем качестве Описание: Майор Павел Викторов назначен начальником ГУВД в город своего детства – тихий подмосковный Валуев. Его жена Ксения планирует ... 10 10 4
Торрент: Зарегистрирован [2019-04-05 22:40] · скачан: 83 раз
Статус: √ проверено
Размер: 1.17 GB
Как cкачать? Как скачать Дама треф через торрент | qTorrent

% Раздел Тема Автор DL S | L
Наши сериалы [ 1.15 GB ] Дама треф / Серии: 1-2 из 2 [2019 SATRip-AVC] aleksan55 Скачать
1 | 0

28-11-2019 20:33  

Отключить всю рекламу на сайте

    Дорогой пользователь! Огромная просьба, поблагодарите релизера, оцените раздачу и оставьте свои комментарий, если Вы скачали Дама треф через торрент бесплатно! Внесите свою лепту в развитие PiratBit!
    Комментировать посты могут только пользователи прошедшие не сложную регистрацию
    Показать сообщения:    

    Дама треф через торрент
    Скачать бесплатно Дама треф
    Дама треф скачать торрент
    Дама треф смотреть онлайн
    Cкачать фильм Дама треф бесплатно
    Дама треф скачать торрент в хорошем качестве
    Дама треф смотреть онлайн бесплатно в хорошем качестве


    Вы не можете начинать темы
    Вы не можете отвечать на сообщения
    Вы не можете редактировать свои сообщения
    Вы не можете удалять свои сообщения
    Вы не можете голосовать в опросах
    Вы не можете прикреплять файлы к сообщениям
    Вы можете скачивать файлы