Ссылка на приватное зеркало нашего сайта всего за 1$. Внимание количество ограничено!!!

2 сезон

iTunes

1 сезон

1

2 сезон

2 сезон

iTunes

1 сезон

RePack

30

Ultimate

ВАЖНО

ИГРА 18+

pack

RePack

MK11
pack

Забери бонус

RePack

jed

!!Акция!!

Alien_Rage

RePack

fifa19

RePack

Assassins Creed: Odyssey

RePack

NEED FOR SPEED™ PAYBACK

4 сезон

9 сезон

Бесстыжие 9 сезон

Все сериалы

все сериалы на PB.wtf

RePack

FAR CRY 5
  

Мотылек / Papillon (Михаэль Ноер) [2017, триллер, драма, криминал, детектив, BD Remux 1080p] [US Transfer] DUB [Лицензия] pb.wtf

Мотылек через торрент pb.wtf

Размер: 36.96 GB | Добавлен: 1 год 7 мес. назад | Торрент скачан:55 раз
Скачать  

05-04-2019 23:26 Мотылек Скачать торрент  

Мотылек / Papillon
Год выпуска: 2017
Страна: Чехия, Испания, США
Жанр: триллер, драма, криминал, детектив
Продолжительность: 02:13:14
Перевод: Дублированный | Лицензия
Субтитры: Русские (full), английские

Режиссер: Михаэль Ноер

rating

В ролях:

Чарли Ханнэм, Рами Малек, Томми Флэнаган, Ив Хьюсон, Роланд Мюллер, Nina Senicar, Майкл Сока, Кристофер Фэйрбэнк, Йорик ван Вагенинген, Йоэль Басман

Описание:

Авантюрист по прозвищу Мотылек получает пожизненный срок в тюрьме для особо опасных преступников - за убийство, которого он не совершал. Когда вокруг враги, а надежда угасает с каждым днём заключения, лишь сила духа может помочь Мотыльку обрести свободу.

Качество: BD Remux 1080p | US Transfer
Формат: MKV

Видео: MPEG-4 AVC, 1920x1080, 32.5 Mbit/s, 23.976 fps
Аудио#1: 48 kHz, DTS-HD MA, 5.1, 3590 Kbps | Дублированный | RUS |
Аудио#2: 48 kHz, DTS-HD MA, 5.1, 3644 Kbps | Оригинал | ENG |
скриншот  скриншот  скриншот  скриншот  скриншот  

General
Unique ID : 2749197581619421478339795887119378753 (0x21179E7E2C9415F007D58DCD8BBA941)
Complete name : D:Video111Papillon.2017.BDREMUX.1080p.seleZen.mkv
Format : Matroska
Format version : Version 4
File size : 37.0 GiB
Duration : 2 h 13 min
Overall bit rate mode : Variable
Overall bit rate : 39.7 Mb/s
Movie name : Papillon 2017 from селезень
Encoded date : UTC 2019-04-05 09:58:12
Writing application : mkvmerge v32.0.0 ('Astral Progressions') 64-bit
Writing library : libebml v1.3.7 + libmatroska v1.5.0

Video
ID : 1
Format : AVC
Format/Info : Advanced Video Codec
Format profile : High@L4.1
Format settings : CABAC / 4 Ref Frames
Format settings, CABAC : Yes
Format settings, ReFrames : 4 frames
Codec ID : V_MPEG4/ISO/AVC
Duration : 2 h 13 min
Bit rate mode : Variable
Bit rate : 32.5 Mb/s
Maximum bit rate : 35.0 Mb/s
Width : 1 920 pixels
Height : 1 080 pixels
Display aspect ratio : 16:9
Frame rate mode : Constant
Frame rate : 23.976 (24000/1001) FPS
Color space : YUV
Chroma subsampling : 4:2:0
Bit depth : 8 bits
Scan type : Progressive
Bits/(Pixel*Frame) : 0.653
Stream size : 30.2 GiB (82%)
Language : English
Default : Yes
Forced : No

Audio #1
ID : 2
Format : DTS XLL
Format/Info : Digital Theater Systems
Commercial name : DTS-HD Master Audio
Codec ID : A_DTS
Duration : 2 h 13 min
Bit rate mode : Variable
Bit rate : 3 590 kb/s
Channel(s) : 6 channels
Channel layout : C L R Ls Rs LFE
Sampling rate : 48.0 kHz
Frame rate : 93.750 FPS (512 SPF)
Bit depth : 24 bits
Compression mode : Lossless
Stream size : 3.34 GiB (9%)
Title : Dub [License]
Language : Russian
Default : Yes
Forced : Yes

Audio #2
ID : 3
Format : DTS XLL
Format/Info : Digital Theater Systems
Commercial name : DTS-HD Master Audio
Codec ID : A_DTS
Duration : 2 h 13 min
Bit rate mode : Variable
Bit rate : 3 644 kb/s
Channel(s) : 6 channels
Channel layout : C L R Ls Rs LFE
Sampling rate : 48.0 kHz
Frame rate : 93.750 FPS (512 SPF)
Bit depth : 24 bits
Compression mode : Lossless
Stream size : 3.39 GiB (9%)
Title : Original
Language : English
Default : No
Forced : No

Text #1
ID : 4
Format : UTF-8
Codec ID : S_TEXT/UTF8
Codec ID/Info : UTF-8 Plain Text
Duration : 2 h 4 min
Bit rate : 48 b/s
Count of elements : 964
Stream size : 43.9 KiB (0%)
Title : Full
Language : Russian
Default : No
Forced : No

Text #2
ID : 5
Format : UTF-8
Codec ID : S_TEXT/UTF8
Codec ID/Info : UTF-8 Plain Text
Duration : 2 h 1 min
Bit rate : 29 b/s
Count of elements : 982
Stream size : 25.8 KiB (0%)
Title : Full
Language : English
Default : No
Forced : No

Text #3
ID : 6
Format : UTF-8
Codec ID : S_TEXT/UTF8
Codec ID/Info : UTF-8 Plain Text
Duration : 2 h 12 min
Bit rate : 32 b/s
Count of elements : 1230
Stream size : 31.2 KiB (0%)
Title : SDH
Language : English
Default : No
Forced : No

Menu
00:00:00.000 : en:Chapter 1
00:08:16.621 : en:Chapter 2
00:16:47.590 : en:Chapter 3
00:21:25.910 : en:Chapter 4
00:26:31.965 : en:Chapter 5
00:30:39.796 : en:Chapter 6
00:34:10.799 : en:Chapter 7
00:44:51.147 : en:Chapter 8
00:52:54.588 : en:Chapter 9
00:59:03.665 : en:Chapter 10
01:04:12.891 : en:Chapter 11
01:12:18.334 : en:Chapter 12
01:20:35.372 : en:Chapter 13
01:24:08.418 : en:Chapter 14
01:35:19.547 : en:Chapter 15
01:40:53.047 : en:Chapter 16
01:47:10.883 : en:Chapter 17
01:57:03.016 : en:Chapter 18
02:02:58.913 : en:Chapter 19
02:05:57.550 : en:Chapter 20

pb.wtf



Скачать Мотылек через торрент http://i1.imageban.ru/out/2018/11/09/fcfcbea5608186d16cf2b8f29cc5951a.jpg Скачать фильм Мотылек через торрент бесплантно в хорошем качестве Описание: Авантюрист по прозвищу Мотылек получает пожизненный срок в тюрьме для особо опасных преступников - за убийство, которого он не ... 10 10 3
Торрент: Зарегистрирован [2019-04-05 23:26] · скачан: 55 раз
Статус: √ проверено
Размер: 36.96 GB
Как cкачать? Как скачать Мотылек через торрент | qTorrent

% Раздел Тема Автор DL S | L
Фильмы (HD 720p, 1080p) (48-60 fps) [ 26.89 GB ] Мотылек / Papillon [2017 BDRip 1080p 60fps] - sheker187 Скачать
1 | 0
Фильмы [HD 720p, 1080p] (Хороший звук DUB, MVO) [ 10 GB ] Мотылек / Papillon [2017 BDRip 720p] DUB [] bober100 Скачать
2 | 0
Фильмы [HD 720p, 1080p] (Хороший звук DUB, MVO) [ 14.96 GB ] Мотылек / Papillon [2017 BDRip 1080p] DUB [] bober100 Скачать
2 | 0
Фильмы 2017 [DVDrip, WEB-DLRip, HDrip] (DUB, MVO) [ 1.46 GB ] Мотылек / Papillon [2017 BDRip] - [] Twi7ter Скачать
3 | 0
Фильмы 2017 [DVDrip, WEB-DLRip, HDrip] (DUB, MVO) [ 2.18 GB ] Мотылек / Papillon [2017 BDRip] - [] Twi7ter Скачать
2 | 0
Фильмы [HD 720p, 1080p] (Хороший звук DUB, MVO) [ 4.73 GB ] Мотылек / Papillon [2017 BDRip 1080p HEVC ()] Мичман37 Скачать
1 | 0
Видео для КПК и Смартфонов [ 506 MB ] Мотылек / Papillon [2017 HDRip КПК] sergey82 Скачать
1 | 0

28-11-2019 20:33  

Отключить всю рекламу на сайте

    Дорогой пользователь! Огромная просьба, поблагодарите релизера, оцените раздачу и оставьте свои комментарий, если Вы скачали Мотылек через торрент бесплатно! Внесите свою лепту в развитие PiratBit!
    Комментировать посты могут только пользователи прошедшие не сложную регистрацию
    Показать сообщения:    

    Мотылек через торрент
    Скачать бесплатно Мотылек
    Мотылек скачать торрент
    Мотылек смотреть онлайн
    Cкачать фильм Мотылек бесплатно
    Мотылек скачать торрент в хорошем качестве
    Мотылек смотреть онлайн бесплатно в хорошем качестве


    Вы не можете начинать темы
    Вы не можете отвечать на сообщения
    Вы не можете редактировать свои сообщения
    Вы не можете удалять свои сообщения
    Вы не можете голосовать в опросах
    Вы не можете прикреплять файлы к сообщениям
    Вы можете скачивать файлы